img image001 image001 image001 image001 image001 image001 image001 image001 image001 image001 image001 image001 image001 image001 image001

Planets Sun Sun Sun
Статистика раздачи
Автор: Nickolas3434 | Размер: 745.77 МБ | Добавлен: 01 янв 2018
Раздают: 18    Качают: 0
Скачать торрент
Скачать торрент
Описание торрента

СообщениеДобавлено: 01 янв 2018 

Информация о фильме
Название: Черемушки
Год выхода: 1962
Жанр: Комедия, музыка
Режиссер: Герберт Раппапорт
В ролях: Ольга Заботкина, Владимир Васильев, Марина Хотунцева, Евгений Леонов, Василий Меркурьев , Федор Никитин, Марина Полбенцева, Владимир Земляникин, Сергей Филиппов, Константин Сорокин, Геннадий Бортников, Светлана Живанкова, Рина Зеленая, Михаил Пуговкин, Эмма Трейвас, Григорий Дунаев.
О фильме:
Лирическая кинооперетта на вечно актуальную тему "жилищного вопроса", достаточно наглядно отражает настроения в обществе и стилистические особенности в искусстве времен хрущевской оттепели....
Сэмпл
Выпущено: СССР, Ленфильм
Продолжительность: 01:27:03
Язык: Русский
Файл
Кодек: XviD
Качество: DVDRip (исходник DVD5)
Видео: 576x432 (1.33:1), 29.970 fps, XviD build 73 ~1058 kbps avg, 0.142 bit/pixel
Звук: 48 kHz, MP3, 2 ch, ~128 kbps avg
Субтитры: Отсутствуют
General
Complete name : D:Cheremushki_DVDRip by ExKinoRay.avi
Format : AVI
Format/Info : Audio Video Interleave
File size : 746 MiB
Duration : 1 h 27 min
Overall bit rate : 1 198 kb/s
Writing application : VirtualDubMod 1.5.10.3 | www.virtualdub-fr.org || (build 2550/release)
Writing library : VirtualDubMod build 2550/release
Video
ID : 0
Format : MPEG-4 Visual
Format profile : Advanced [email protected]
Format settings : BVOP1 / Custom Matrix
Format settings, BVOP : 1
Format settings, QPel : No
Format settings, GMC : No warppoints
Format settings, Matrix : Custom
Codec ID : XVID
Codec ID/Hint : XviD
Duration : 1 h 27 min
Bit rate : 1 058 kb/s
Width : 576 pixels
Height : 432 pixels
Display aspect ratio : 4:3
Frame rate : 29.970 (30000/1001) FPS
Original frame rate : 29.970 (29970/1000) FPS
Color space : YUV
Chroma subsampling : 4:2:0
Bit depth : 8 bits
Scan type : Progressive
Compression mode : Lossy
Bits/(Pixel*Frame) : 0.142
Stream size : 659 MiB (88%)
Writing library : XviD 73
Audio
ID : 1
Format : MPEG Audio
Format version : Version 1
Format profile : Layer 3
Codec ID : 55
Codec ID/Hint : MP3
Duration : 1 h 27 min
Bit rate mode : Constant
Bit rate : 128 kb/s
Channel(s) : 2 channels
Sampling rate : 48.0 kHz
Compression mode : Lossy
Stream size : 79.7 MiB (11%)
Alignment : Aligned on interleaves
Interleave, duration : 33 ms (1.00 video frame)
Interleave, preload duratio : 504 ms
Writing library : LAME3.99r
Encoding settings : -m s -V 4 -q 2 -lowpass 17 -b 128

Релиз от:



   Похожие торренты   Торрент   Размер 
В этой теме нет новых непрочитанных сообщений. Черемушки (1962) DVDRip от Generalfilm

3 | 4

1.46 ГБ

В этой теме нет новых непрочитанных сообщений. Черемушки (1962) DVD9

10 | 2

6.26 ГБ

В этой теме нет новых непрочитанных сообщений. 713-й просит посадку (1962) DVDRip-AVC от ExKinoRay

31 | 6

891.18 МБ

В этой теме нет новых непрочитанных сообщений. Моя гейша / My Geisha (1962) DVDRip-AVC от ExKinoRay | P

6 | 0

2.12 ГБ

В этой теме нет новых непрочитанных сообщений. Королева Шантеклера / La Reina Del Chantecler (1962) DVDRip-AVC от ExKinoRay | D

4 | 0

2.35 ГБ

В этой теме нет новых непрочитанных сообщений. Поединок на острове / Le combat dans l'île (1962) DVDRip от ExKinoRay

1 | 3

1.37 ГБ

В этой теме нет новых непрочитанных сообщений. Дама с камелиями / La bella Lola (1962) DVDRip-AVC от ExKinoRay | P

0 | 0

2.09 ГБ




Вы не можете начинать темы
Вы не можете отвечать на сообщения
Вы не можете редактировать свои сообщения
Вы не можете удалять свои сообщения
Вы не можете добавлять вложения

Перейти:  
Для Мосгорсуда, Роскомнадзора и рекламодателей: mosgorsud-torrent[собачка]yandex.ru
 Вход
ppkBB3cker v.2 © 2008-2014 @ PPK
[ Time : 0.058s | 19 Queries | GZIP : Off ]

cron