img image001 image001 image001 image001 image001 image001 image001 image001 image001 image001 image001 image001 image001 image001 image001

Planets Sun Sun Sun
Статистика раздачи
Автор: Nickolas3434 | Размер: 5.83 ГБ | Добавлен: 01 янв 2018
Раздают: 21    Качают: 2
Скачать торрент
Скачать торрент
Описание торрента

СообщениеДобавлено: 01 янв 2018 

Информация о фильме
Название: Любовь с ограничениями
Год выпуска: 2016
Жанр: комедия, мелодрама
Выпущено: Россия, Art Pictures Studio, ВайТ Медиа
Продолжительность: 01:42:38
Перевод: Оригинал | Blu-ray RUS
Режиссер: Дмитрий Тюрин
В ролях: Павел Прилучный, Анна Старшенбаум, Илья Глинников, Алексей Чадов, Алексей Воробьев, Кирилл Плетнёв, Сергей Кутергин, Тимур Боканча, Ксения Иванова, Павел Шевандо
О фильме
Однажды самый обычный парень Миша узнает об указе Президента России, по которому в крупных компаниях должно работать два процента людей с ограниченными возможностями. И тут в его «светлую» голову приходит идея, как воплотить свою давнюю мечту о богатой и беззаботной жизни. Не долго думая, Миша получает фиктивные медицинские документы, садится в коляску и едет на собеседование - и не куда-нибудь, а в крупную корпорацию «Нашгаз». По счастливой случайности там как раз не хватало одного человека до той самой квоты. Жизнь удалась! Престижная работа, большая зарплата, крутая машина и только одно ограничение: Миша постоянно должен находиться в инвалидном кресле.

Файл
Качество: BDRip 1080p
Видео: MPEG-4 AVC, 1920x804 (2.40:1), 7500 Kbps, 24000 fps
Аудио: AC3, 5.1 ch, 48 kHz, 640 kbps | RUS
Субтитры: нет
Навигация по главам: есть

Общее
Уникальный идентификатор : 170895171504007953450962683438341599648 (0x8091367B0C8004CB9F9917597BE8B1A0)
Полное имя : Любовь с ограничениями.2016.BDRip.1080p.mkv
Формат : Matroska
Версия формата : Version 2
Размер файла : 5,83 Гбайт
Продолжительность : 1 ч. 42 м.
Общий поток : 8137 Кбит/сек
Название фильма : Любовь с ограничениями (2016)
Дата кодирования : UTC 2017-12-30 07:59:06
Программа кодирования : mkvmerge v5.8.0 ('No Sleep / Pillow') built on Sep 2 2012 15:37:04
Библиотека кодирования : libebml v1.2.3 + libmatroska v1.3.0
Attachments : Лог кодирования.log
Видео
Идентификатор : 1
Формат : AVC
Формат/Информация : Advanced Video Codec
Профиль формата : [email protected]
Параметр CABAC формата : Да
Параметр RefFrames формата : 5 кадров
Идентификатор кодека : V_MPEG4/ISO/AVC
Продолжительность : 1 ч. 42 м.
Битрейт : 7500 Кбит/сек
Ширина : 1920 пикселей
Высота : 804 пикселя
Соотношение сторон : 2,40:1
Режим частоты кадров : Постоянный
Частота кадров : 24,000 кадра/сек
Цветовое пространство : YUV
Субдискретизация насыщенности : 4:2:0
Битовая глубина : 8 бит
Тип развёртки : Прогрессивная
Бит/(Пиксели*Кадры) : 0.202
Размер потока : 5,26 Гбайт (90%)
Заголовок : Любовь с ограничениями (2016)
Библиотека кодирования : x264 core 150 r2833 df79067
Настройки программы : cabac=1 / ref=5 / deblock=1:-1:-1 / analyse=0x3:0x133 / me=umh / subme=11 / psy=1 / psy_rd=1.00:0.15 / mixed_ref=1 / me_range=64 / chroma_me=1 / trellis=2 / 8x8dct=1 / cqm=0 / deadzone=21,11 / fast_pskip=0 / chroma_qp_offset=-3 / threads=6 / lookahead_threads=1 / sliced_threads=0 / nr=0 / decimate=0 / interlaced=0 / bluray_compat=0 / constrained_intra=0 / bframes=16 / b_pyramid=2 / b_adapt=2 / b_bias=0 / direct=3 / weightb=1 / open_gop=0 / weightp=2 / keyint=240 / keyint_min=24 / scenecut=40 / intra_refresh=0 / rc_lookahead=60 / rc=2pass / mbtree=0 / bitrate=7500 / ratetol=1.0 / qcomp=0.60 / qpmin=0 / qpmax=69 / qpstep=4 / cplxblur=20.0 / qblur=0.5 / vbv_maxrate=50000 / vbv_bufsize=62500 / nal_hrd=none / filler=0 / ip_ratio=1.40 / pb_ratio=1.30 / aq=1:1.00
Язык : Russian
Default : Да
Forced : Нет
Аудио
Идентификатор : 2
Формат : AC-3
Формат/Информация : Audio Coding 3
Параметр Endianness формата : Big
Идентификатор кодека : A_AC3
Продолжительность : 1 ч. 42 м.
Вид битрейта : Постоянный
Битрейт : 640 Кбит/сек
Каналы : 6 каналов
Расположение каналов : Front: L C R, Side: L R, LFE
Частота : 48,0 КГц
Частота кадров : 31,250 кадров/сек (1536 SPF)
Битовая глубина : 16 бит
Метод сжатия : С потерями
Размер потока : 470 Мбайт (8%)
Заголовок : Оригинал, Blu-ray RUS
Язык : Russian
Default : Да
Forced : Нет
Меню
00:00:00.000 : en:00:00:00.000
00:02:32.250 : en:00:02:32.250
00:13:15.792 : en:00:13:15.792
00:27:14.292 : en:00:27:14.292
00:37:00.292 : en:00:37:00.292
00:48:26.292 : en:00:48:26.292
01:02:44.833 : en:01:02:44.833
01:14:13.542 : en:01:14:13.542
01:28:06.583 : en:01:28:06.583
x264 [info]: frame I:989 Avg QP:15.72 size: 162325
x264 [info]: frame P:38059 Avg QP:18.28 size: 69800
x264 [info]: frame B:108762 Avg QP:19.51 size: 27151



   Похожие торренты   Торрент   Размер 
В этой теме нет новых непрочитанных сообщений. Любовь с ограничениями (2016) BDRip | Лицензия

1776 | 59

1.37 ГБ

В этой теме нет новых непрочитанных сообщений. Любовь с ограничениями (2016) BDRip-AVC от ExKinoRay | Лицензия

156 | 5

746.23 МБ

В этой теме нет новых непрочитанных сообщений. Любовь с ограничениями (2016) BDRip-AVC от HELLYWOOD | Лицензия

173 | 4

2.18 ГБ

В этой теме нет новых непрочитанных сообщений. Любовь с ограничениями (2016) BDRip-AVC от HELLYWOOD | Лицензия

43 | 1

1.46 ГБ

В этой теме нет новых непрочитанных сообщений. Любовь с ограничениями (2016) BDRip от ExKinoRay | Лицензия

158 | 10

1.46 ГБ

В этой теме нет новых непрочитанных сообщений. Любовь с ограничениями (2016) Blu-Ray 1080р | Лицензия

24 | 3

21.49 ГБ

В этой теме нет новых непрочитанных сообщений. Любовь с ограничениями (2016) BDRip от HQCLUB

144 | 13

1.45 ГБ




Вы не можете начинать темы
Вы не можете отвечать на сообщения
Вы не можете редактировать свои сообщения
Вы не можете удалять свои сообщения
Вы не можете добавлять вложения

Перейти:  
Для Мосгорсуда, Роскомнадзора и рекламодателей: mosgorsud-torrent[собачка]yandex.ru
 Вход
ppkBB3cker v.2 © 2008-2014 @ PPK
[ Time : 0.050s | 19 Queries | GZIP : Off ]

cron