img image001 image001 image001 image001 image001 image001 image001 image001 image001 image001 image001 image001 image001 image001 image001

Planets Sun Sun Sun
Статистика раздачи
Автор: Nickolas3434 | Размер: 1.09 ГБ | Добавлен: 01 янв 2018
Раздают: 17    Качают: 0
Скачать торрент
Скачать торрент
Описание торрента

СообщениеДобавлено: 01 янв 2018 


Мы "В КОНТАКТЕ"


Страна: СССР
Производство: Беларусьфильм
Жанр: драма
Год выпуска: 1959
Продолжительность: 01:22:41
Перевод: Не требуется
Cубтитры: нет
Оригинальная аудиодорожка: русский
Режиссер: Иосиф Шульман
В ролях:
Ольга Хорькова, Глеб Глебов, Иван Жеваго, Александра Денисова, Юрий Белов, Инна Выходцева, Константин Скоробогатов, Елена Максимова, Леонид Кмит, Павел Пекур, Александр Кистов, Георгий Гумилевский, Валентина Ананьина...
Об актёрах подробней
Описание:
Много трудностей выпало на долю председателя сельсовета Христины Жалюк (Ольга Хорькова) с первых же дней работы. Первая сессия сельсовета срывается по вине председателя колхоза Спиридона Жилинки (Глеб Глебов), притворившегося больным и не явившегося на заседание. Дочь Христины Юлька обвинена в падеже телят и отстранена от работы.





Источник: DVD5 R5
Качество видео: DVDRip-AVC
Формат видео: MKV
Видео: 716->759х570 (4:3), 25 fps, H264 ~ 1691 kbps avg, 0.166 bit/pixel
Аудио: 48 kHz, Dolby Digital AC3 2.0, 192 kbps
Раздача от:
Общее
Полное имя : Strogaya.zhenshhina.1959.DVDRip-AVC_[New-team]_by_AVP_Studio.mkv
Формат : Matroska
Версия формата : Version 2
Размер файла : 1,09 Гбайт
Продолжительность : 1 ч. 22 м.
Общий поток : 1885 Кбит/сек
Дата кодирования : UTC 2017-12-26 16:12:26
Программа кодирования : mkvmerge v6.1.0 ('Old Devil') built on Mar 4 2013 09:10:42
Библиотека кодирования : libebml v1.3.0 + libmatroska v1.4.0
Видео
Идентификатор : 1
Формат : AVC
Формат/Информация : Advanced Video Codec
Профиль формата : [email protected]
Настройки формата : CABAC / 10 Ref Frames
Параметр CABAC формата : Да
Параметр RefFrames формата : 10 кадров
Идентификатор кодека : V_MPEG4/ISO/AVC
Продолжительность : 1 ч. 22 м.
Битрейт : 1691 Кбит/сек
Ширина : 716 пикселей
Высота : 570 пикселей
Соотношение сторон : 4:3
Режим частоты кадров : Постоянный
Частота кадров : 25,000 кадров/сек
Цветовое пространство : YUV
Субдискретизация насыщенности : 4:2:0
Битовая глубина : 8 бит
Тип развёртки : Прогрессивная
Бит/(Пиксели*Кадры) : 0.166
Размер потока : 979 Мбайт (88%)
Библиотека кодирования : x264 core 130 r2273 b3065e6
Настройки программы : cabac=1 / ref=10 / deblock=1:-2:-1 / analyse=0x3:0x113 / me=umh / subme=10 / psy=1 / psy_rd=1.00:0.00 / mixed_ref=1 / me_range=32 / chroma_me=1 / trellis=2 / 8x8dct=1 / cqm=0 / deadzone=21,11 / fast_pskip=1 / chroma_qp_offset=-2 / threads=6 / lookahead_threads=1 / sliced_threads=0 / nr=0 / decimate=0 / interlaced=0 / bluray_compat=0 / constrained_intra=0 / bframes=8 / b_pyramid=2 / b_adapt=2 / b_bias=0 / direct=3 / weightb=1 / open_gop=0 / weightp=2 / keyint=250 / keyint_min=25 / scenecut=40 / intra_refresh=0 / rc=2pass / mbtree=0 / bitrate=1691 / ratetol=1.0 / qcomp=0.60 / qpmin=0 / qpmax=69 / qpstep=4 / cplxblur=20.0 / qblur=0.5 / ip_ratio=1.40 / pb_ratio=1.30 / aq=1:1.00
Default : Да
Forced : Нет
Аудио
Идентификатор : 2
Формат : AC-3
Формат/Информация : Audio Coding 3
Идентификатор кодека : A_AC3
Продолжительность : 1 ч. 22 м.
Вид битрейта : Постоянный
Битрейт : 192 Кбит/сек
Каналы : 2 канала
Расположение каналов : Front: L R
Частота : 48,0 КГц
Частота кадров : 31,250 кадров/сек (1536 SPF)
Битовая глубина : 16 бит
Метод сжатия : С потерями
Размер потока : 114 Мбайт (10%)
Default : Да
Forced : Нет





   Похожие торренты   Торрент   Размер 
В этой теме нет новых непрочитанных сообщений. Строгая женщина (1959) DVDRip от New-Team

8 | 0

745.45 МБ

В этой теме нет новых непрочитанных сообщений. Строгая женщина (1959) DVDRip от New-Team

6 | 1

1.09 ГБ

В этой теме нет новых непрочитанных сообщений. Живет на свете женщина (1959) VHSRip-AVC от New-Team

5 | 0

1.46 ГБ

В этой теме нет новых непрочитанных сообщений. Живет на свете женщина (1959) VHSRip от New-Team

0 | 0

1.46 ГБ

В этой теме нет новых непрочитанных сообщений. Женщина-оса / The Wasp Woman (1959) DVDRip | L1

2 | 3

1.07 ГБ

В этой теме нет новых непрочитанных сообщений. Жестокость (1959) DVDRip-AVC от New-Team

14 | 0

1.09 ГБ

В этой теме нет новых непрочитанных сообщений. Фуркат (1959) DVDRip от New-Team

11 | 1

1.09 ГБ




Вы не можете начинать темы
Вы не можете отвечать на сообщения
Вы не можете редактировать свои сообщения
Вы не можете удалять свои сообщения
Вы не можете добавлять вложения

Перейти:  
Для Мосгорсуда, Роскомнадзора и рекламодателей: mosgorsud-torrent[собачка]yandex.ru
 Вход
ppkBB3cker v.2 © 2008-2014 @ PPK
[ Time : 0.047s | 18 Queries | GZIP : Off ]

cron