img image001 image001 image001 image001 image001 image001 image001 image001 image001 image001 image001 image001 image001 image001 image001

Planets Sun Sun Sun
Статистика раздачи
Автор: Nickolas3434 | Размер: 5.46 ГБ | Добавлен: 01 янв 2018
Раздают: 58    Качают: 2
Скачать торрент
Скачать торрент
Описание торрента

СообщениеДобавлено: 01 янв 2018 

Информация о фильме
Название: Пираты ХХ века
Год выхода: 1979
Жанр: боевик, триллер, криминал, приключения
Выпущено: СССР
Продолжительность: 01:19:52
Перевод: Не требуется
Режиссер: Борис Дуров
В ролях: Николай Ерёменко мл., Пётр Вельяминов, Талгат Нигматулин, Рейно Арен, Дилором Камбарова, Наталья Хорохорина, Джигангир Шахмурадов, Юрий Кутырев, Тадеуш Касьянов, Майя Эглит
О фильме
Советский сухогрузный корабль перевозил большой груз опиума для фармакологической промышленности. Современные пираты, охотившиеся за ценным грузом, коварством завладели кораблем и экипажем.Чтобы не осталось свидетелей этого разбойного нападения, пираты попытались уничтожить всю команду корабля. В океанских просторах разыгралась напряженная борьба между горсткой советских моряков и современными разбойниками, не знающими пощады.

Файл
Кодек: х264
Качество: WEB-DLRip 720p
Видео: MPEG-4 AVC, 1280x576, 8944 Кбит/с, 25000 fps
Аудио 1: AC3, 6 ch, 448 Кбит/с
Аудио 2: AC3, 2 ch, 192 Кбит/с
Субтитры: Русские
Навигация по главам: есть
Релиз от:

x264 [info]: frame I:749 Avg QP:19.32 size: 138895
x264 [info]: frame P:26260 Avg QP:20.89 size: 84372
x264 [info]: frame B:92802 Avg QP:22.80 size: 33987
==================================
Общее
Уникальный идентификатор : 226563249120497290445230957393950328066 (0xAA727E9CA7F928469939F8CF6BBCC502)
Полное имя : Пираты XX века_1979-WEB-DLRip-720p.mkv
Формат : Matroska
Версия формата : Version 2
Размер файла : 5,46 Гбайт
Продолжительность : 1 ч. 19 м.
Общий поток : 9779 Кбит/сек
Дата кодирования : UTC 2017-03-06 11:10:47
Программа кодирования : mkvmerge v5.8.0 ('No Sleep / Pillow') built on Sep 2 2012 15:37:04
Библиотека кодирования : libebml v1.2.3 + libmatroska v1.3.0
Видео
Идентификатор : 1
Формат : AVC
Формат/Информация : Advanced Video Codec
Профиль формата : [email protected]
Параметр CABAC формата : Да
Параметр ReFrames формата : 11 кадров
Идентификатор кодека : V_MPEG4/ISO/AVC
Продолжительность : 1 ч. 19 м.
Битрейт : 8944 Кбит/сек
Ширина : 1280 пикселей
Высота : 576 пикселей
Соотношение сторон : 2,222
Режим частоты кадров : Постоянный
Частота кадров : 25,000 кадров/сек
Цветовое пространство : YUV
Субдискретизация насыщенности : 4:2:0
Битовая глубина : 8 бит
Тип развёртки : Прогрессивная
Бит/(Пиксели*Кадры) : 0.485
Размер потока : 4,99 Гбайт (91%)
Заголовок : Korsar.tv
Библиотека кодирования : x264 core 148 r2744kMod b97ae06
Настройки программы : cabac=1 / ref=11 / deblock=1:-2:-2 / analyse=0x3:0x113 / me=umh / subme=10 / psy=1 / fade_compensate=0.00 / psy_rd=1.05:0.15 / mixed_ref=1 / me_range=32 / chroma_me=1 / trellis=2 / 8x8dct=1 / cqm=0 / deadzone=21,11 / fast_pskip=1 / chroma_qp_offset=-3 / threads=12 / lookahead_threads=3 / sliced_threads=0 / nr=0 / decimate=1 / interlaced=0 / bluray_compat=0 / constrained_intra=0 / bframes=10 / b_pyramid=2 / b_adapt=2 / b_bias=0 / direct=1 / weightb=1 / open_gop=0 / weightp=2 / keyint=250 / keyint_min=25 / scenecut=40 / intra_refresh=0 / rc=crf / mbtree=0 / crf=18.6000 / qcomp=0.63 / qpmin=0 / qpmax=39 / qpstep=4 / ip_ratio=1.40 / pb_ratio=1.30 / aq=2:1.00
Язык : English
Default : Да
Forced : Нет
Цветовой диапазон : Limited
Основные цвета : BT.709
Характеристики трансфера : BT.709
Коэффициенты матрицы : BT.709
Аудио #1
Идентификатор : 2
Формат : AC-3
Формат/Информация : Audio Coding 3
Расширение режима : CM (complete main)
Параметр Endianness формата : Big
Идентификатор кодека : A_AC3
Продолжительность : 1 ч. 19 м.
Вид битрейта : Постоянный
Битрейт : 448 Кбит/сек
Каналы : 6 каналов
Расположение каналов : Front: L C R, Side: L R, LFE
Частота : 48,0 КГц
Частота кадров : 31,250 кадров/сек (1536 spf)
Битовая глубина : 16 бит
Метод сжатия : С потерями
Задержка видео : 23 мс.
Размер потока : 256 Мбайт (5%)
Язык : Russian
Default : Да
Forced : Нет
Аудио #2
Идентификатор : 3
Формат : AC-3
Формат/Информация : Audio Coding 3
Расширение режима : CM (complete main)
Параметр Endianness формата : Big
Идентификатор кодека : A_AC3
Продолжительность : 1 ч. 19 м.
Вид битрейта : Постоянный
Битрейт : 192 Кбит/сек
Каналы : 2 канала
Расположение каналов : Front: L R
Частота : 48,0 КГц
Частота кадров : 31,250 кадров/сек (1536 spf)
Битовая глубина : 16 бит
Метод сжатия : С потерями
Размер потока : 110 Мбайт (2%)
Язык : Russian
Default : Нет
Forced : Нет
Текст
Идентификатор : 4
Формат : UTF-8
Идентификатор кодека : S_TEXT/UTF8
Идентификатор кодека/Информация : UTF-8 Plain Text
Язык : Russian
Default : Да
Forced : Нет
Меню
00:00:00.000 : en:Chapter 01
00:06:17.120 : en:Chapter 02
00:13:59.920 : en:Chapter 03
00:16:00.320 : en:Chapter 04
00:23:01.680 : en:Chapter 05
00:29:16.400 : en:Chapter 06
00:33:32.720 : en:Chapter 07
00:41:50.080 : en:Chapter 08
00:46:00.400 : en:Chapter 09
00:51:58.080 : en:Chapter 10
00:59:47.680 : en:Chapter 11
01:04:27.840 : en:Chapter 12
01:12:05.200 : en:Chapter 13
01:17:46.480 : en:Chapter 14



   Похожие торренты   Торрент   Размер 
В этой теме нет новых непрочитанных сообщений. Пираты ХХ века (1979) WEB-DLRip от GeneralFilm

13 | 0

1.36 ГБ

В этой теме нет новых непрочитанных сообщений. Пираты ХХ века (1979) WEB-DLRip-AVC от ExKinoRay

24 | 0

2.5 ГБ

В этой теме нет новых непрочитанных сообщений. Пираты ХХ века (1979) WEB-DLRip от GeneralFilm

7 | 1

746.1 МБ

В этой теме нет новых непрочитанных сообщений. Пираты ХХ века (1979) HDTVRip 720p

595 | 25

3.06 ГБ

В этой теме нет новых непрочитанных сообщений. Пираты ХХ века (1979) DVDRip-AVC

4 | 3

1.23 ГБ

В этой теме нет новых непрочитанных сообщений. Пираты ХХ века (1979) DVDRip

10 | 82

1.37 ГБ

В этой теме нет новых непрочитанных сообщений. Пираты ХХ века (1979) HDTVRip

167 | 24

1.37 ГБ




Вы не можете начинать темы
Вы не можете отвечать на сообщения
Вы не можете редактировать свои сообщения
Вы не можете удалять свои сообщения
Вы не можете добавлять вложения

Перейти:  
Для Мосгорсуда, Роскомнадзора и рекламодателей: mosgorsud-torrent[собачка]yandex.ru
 Вход
ppkBB3cker v.2 © 2008-2014 @ PPK
[ Time : 0.062s | 18 Queries | GZIP : Off ]

cron