img image001 image001 image001 image001 image001 image001 image001 image001 image001 image001 image001 image001 image001 image001 image001

Planets Sun Sun Sun
Статистика раздачи
Автор: Nickolas3434 | Размер: 12.77 ГБ | Добавлен: 01 янв 2018
Раздают: 13    Качают: 1
Скачать торрент
Скачать торрент
Описание торрента

СообщениеДобавлено: 01 янв 2018 

Информация о фильме
Название: Карнавальная ночь
Оригинальное название: Карнавальная ночь
Год выхода: 1956
Жанр: мюзикл, мелодрама, комедия
Режиссер: Эльдар Рязанов
В ролях: Игорь Ильинский, Людмила Гурченко, Юрий Белов, Георгий Куликов, Сергей Филиппов, Ольга Власова, Андрей Тутышкин, Тамара Носова, Геннадий Юдин, Владимир Зельдин
О фильме:
Веселая победа над теперь уже вовсе не страшным дураком бюрократом милого коллектива во главе со стройной девушкой. Из картины Рязанова так и рвется наружу радость освобождения.

Выпущено: СССР
Студия: Мосфильм
Продолжительность: 01:15:31
Перевод: Не требуется
Файл
Кодек: x264
Качество: BDRemux
Видео: MPEG-4 AVC Video, 1920x1080, ~19951 kbps, 23.976 fps
Аудио 1: DTS-HD MA 5.1, 3807 kbps, 48 kHz [Русский]
Аудио 2: AC3 5.1, 448 kbps, 48 kHz [Русский]
Субтитры: Нет
Полная реставрация изображения и звука. Исходные киноматериалы подготовлены Госфильмофондом России. Покадровая цифровая реставрация изображения, ремастеринг звука и авторинг проведены объединением «Крупный план».
Полное имя : D:Карнавальная.ночь.(1956).BDRemux.[1080p].mkv
Формат : Matroska
Версия формата : Version 2
Размер файла : 12,8 Гбайт
Продолжительность : 1 ч. 15 м.
Режим общего битрейта : Переменный
Общий поток : 24,2 Мбит/сек
Название фильма : Карнавальная ночь (1956) / Lelya_K for NNM-Club
Дата кодирования : UTC 2013-12-10 18:47:43
Программа кодирования : mkvmerge v5.7.0 ('The Whirlwind') built on Aug 7 2012 14:11:40
Библиотека кодирования : libebml v1.2.3 + libmatroska v1.3.0
Attachment : Yes
Видео
Идентификатор : 1
Формат : AVC
Формат/Информация : Advanced Video Codec
Профиль формата : [email protected]
Параметр CABAC формата : Да
Параметр ReFrames формата : 4 кадра
Идентификатор кодека : V_MPEG4/ISO/AVC
Продолжительность : 1 ч. 15 м.
Вид битрейта : Переменный
Битрейт : 21,7 Мбит/сек
Максимальный битрейт : 25,0 Мбит/сек
Ширина : 1920 пикселей
Высота : 1080 пикселей
Соотношение сторон : 16:9
Режим частоты кадров : Постоянный
Частота кадров : 23,976 кадра/сек
Стандарт вещания : NTSC
Цветовое пространство : YUV
Субдискретизация насыщенности : 4:2:0
Битовая глубина : 8 бит
Тип развёртки : Прогрессивная
Бит/(Пиксели*Кадры) : 0.437
Размер потока : 11,5 Гбайт (90%)
Заголовок : Карнавальная.ночь.(1956).BDRemux.[1080p]
Язык : Russian
Default : Да
Forced : Нет
Основные цвета : BT.709
Характеристики трансфера : BT.709
Коэффициенты матрицы : BT.709
Аудио #1
Идентификатор : 2
Формат : DTS
Формат/Информация : Digital Theater Systems
Профиль формата : MA / Core
Идентификатор кодека : A_DTS
Продолжительность : 1 ч. 15 м.
Вид битрейта : Переменный
Битрейт : 1561 Кбит/сек / 1510 Кбит/сек
Каналы : 6 каналов
Расположение каналов : Front: L C R, Side: L R, LFE
Частота : 48,0 КГц
Битовая глубина : 24 бит
Метод сжатия : Без потерь / Lossy
Заголовок : DTS-HD MA 5.1 / 3807 kbps
Язык : Russian
Default : Да
Forced : Нет
Аудио #2
Идентификатор : 3
Формат : AC-3
Формат/Информация : Audio Coding 3
Расширение режима : CM (complete main)
Параметр Endianness формата : Big
Идентификатор кодека : A_AC3
Продолжительность : 1 ч. 15 м.
Вид битрейта : Постоянный
Битрейт : 448 Кбит/сек
Каналы : 6 каналов
Расположение каналов : Front: L C R, Side: L R, LFE
Частота : 48,0 КГц
Битовая глубина : 16 бит
Метод сжатия : С потерями
Размер потока : 242 Мбайт (2%)
Заголовок : AC3 5.1 / 448 kbps
Язык : Russian
Default : Нет
Forced : Нет
Меню
00:00:00.000 : ru:Chapter 1
00:06:20.380 : ru:Chapter 2
00:15:02.109 : ru:Chapter 3
00:22:14.624 : ru:Chapter 4
00:29:50.371 : ru:Chapter 5
00:33:37.682 : ru:Chapter 6
00:40:10.408 : ru:Chapter 7
00:47:34.852 : ru:Chapter 8
00:54:18.171 : ru:Chapter 9
01:00:56.611 : ru:Chapter 10
01:07:08.274 : ru:Chapter 11
01:11:04.760 : ru:Chapter 12



   Похожие торренты   Торрент   Размер 
В этой теме нет новых непрочитанных сообщений. Карнавальная ночь (1956) BDRip 1080p

227 | 15

7.76 ГБ

В этой теме нет новых непрочитанных сообщений. Карнавальная ночь (1956) BDRip 1080p от New-Team

9 | 0

4.37 ГБ

В этой теме нет новых непрочитанных сообщений. Карнавальная ночь (1956) DVDRip

8 | 3

693.46 МБ

В этой теме нет новых непрочитанных сообщений. Карнавальная ночь (1956) DVDRip-AVC

275 | 35

1.45 ГБ

В этой теме нет новых непрочитанных сообщений. Карнавальная ночь (1956) DVDRip

169 | 22

1.36 ГБ

В этой теме нет новых непрочитанных сообщений. Карнавальная ночь (1956) BDRip от HQCLUB

370 | 14

1.45 ГБ

В этой теме нет новых непрочитанных сообщений. Карнавальная ночь (1956) BDRip от New-Team

117 | 18

1.45 ГБ




Вы не можете начинать темы
Вы не можете отвечать на сообщения
Вы не можете редактировать свои сообщения
Вы не можете удалять свои сообщения
Вы не можете добавлять вложения

Перейти:  
Для Мосгорсуда, Роскомнадзора и рекламодателей: mosgorsud-torrent[собачка]yandex.ru
 Вход
ppkBB3cker v.2 © 2008-2014 @ PPK
[ Time : 0.050s | 17 Queries | GZIP : Off ]

cron