img image001 image001 image001 image001 image001 image001 image001 image001 image001 image001 image001 image001 image001 image001 image001

Planets Sun Sun Sun
Статистика раздачи
Автор: Nickolas3434 | Размер: 746.93 МБ | Добавлен: 04 янв 2018
Раздают: 1    Качают: 0
Скачать торрент
Скачать торрент
Описание торрента

СообщениеДобавлено: 04 янв 2018 


Мы "В КОНТАКТЕ"


Страна: СССР
Производство: Свердловская к/ст
Жанр: драма, мелодрама
Год выпуска: 1959
Продолжительность: 01:27:04
Перевод: Не требуется
Cубтитры: нет
Оригинальная аудиодорожка: русский
Режиссер: Николай Жуков, Николай Поленков
В ролях:
Барият Мурадова, Мурадхан Кухмазов, Е. Хашаева, М. Султанмурадов, Х. Казимагамедова, Абдурашид Махсудов, Саният Мурадова, Зейнаб Набиева, Багиш Айдаев, Дадам Саиднуров, Тажутдин Гаджиев, У. Шихалиев, Хайбат Магомедова...
Об актёрах подробней
Описание:
Многодетная кавказская семья ожидает пополнение – Хану беременна. Башир, глава семейства не хочет больше иметь дочерей, коих у него и так три, и заявляет жене, что выгонит ее, если родится девочка. Как бы не молилась Хану богу, судьбу не изменишь. Рождается дочь.





Источник: DVD5 R5
Качество видео: DVDRip
Формат видео: AVI
Видео: 640х480 (4:3), 25 fps, XviD ~ 1062 kbps avg, 0.138 bit/pixel
Аудио: 48 kHz, MP3 2.0, 128 kbps
Раздача от:
Общее
Полное имя : Tuchi.pokidayut.nebo.1959.DVDRip-745_[New-team]_by_AVP_Studio.avi
Формат : AVI
Формат/Информация : Audio Video Interleave
Размер файла : 747 Мбайт
Продолжительность : 1 ч. 27 м.
Общий поток : 1199 Кбит/сек
Программа кодирования : VirtualDubMod 1.5.10.3 | www.virtualdub-fr.org || (build 2550/release)
Библиотека кодирования : VirtualDubMod build 2550/release
Видео
Идентификатор : 0
Формат : MPEG-4 Visual
Профиль формата : Advanced [email protected]
Настройки формата : BVOP1 / Custom Matrix
Параметр BVOP формата : 1
Параметр QPel формата : Нет
Параметр GMC формата : Без точки перехода
Параметр матрицы формата : Выборочная
Идентификатор кодека : XVID
Идентификатор кодека/Подсказка : XviD
Продолжительность : 1 ч. 27 м.
Битрейт : 1062 Кбит/сек
Ширина : 640 пикселей
Высота : 480 пикселей
Соотношение сторон : 4:3
Частота кадров : 25,000 кадров/сек
Цветовое пространство : YUV
Субдискретизация насыщенности : 4:2:0
Битовая глубина : 8 бит
Тип развёртки : Прогрессивная
Метод сжатия : С потерями
Бит/(Пиксели*Кадры) : 0.138
Размер потока : 661 Мбайт (89%)
Библиотека кодирования : XviD 73
Аудио
Идентификатор : 1
Формат : MPEG Audio
Версия формата : Version 1
Профиль формата : Layer 3
Идентификатор кодека : 55
Идентификатор кодека/Подсказка : MP3
Продолжительность : 1 ч. 27 м.
Вид битрейта : Постоянный
Битрейт : 128 Кбит/сек
Каналы : 2 канала
Частота : 48,0 КГц
Частота кадров : 41,667 кадра/сек (1152 SPF)
Метод сжатия : С потерями
Размер потока : 79,7 Мбайт (11%)
Выравнивание : Соединение по промежуткам
Продолжительность промежутка : 40 мс. (1,00 видеокадр)
Время предзагрузки промежутка : 504 мс.
Библиотека кодирования : LAME3.99r
Настройки программы : -m s -V 4 -q 2 -lowpass 17 -b 128





   Похожие торренты   Торрент   Размер 
В этой теме нет новых непрочитанных сообщений. Тучи покидают небо (1959) DVDRip от New-Team

3 | 0

1.09 ГБ

В этой теме нет новых непрочитанных сообщений. Тучи покидают небо (1959) DVDRip-AVC от New-Team

6 | 2

1.09 ГБ

В этой теме нет новых непрочитанных сообщений. Тучи покидают небо (1959) DVDRip от Кинорадиомагия

3 | 1

1.37 ГБ

В этой теме нет новых непрочитанных сообщений. Небо зовет (1959) DVDRip-AVC

108 | 22

1.54 ГБ

В этой теме нет новых непрочитанных сообщений. Небо зовет (1959) DVDRip | Реставрация

9 | 6

1.14 ГБ

В этой теме нет новых непрочитанных сообщений. Призраки покидают вершины (1955) VHSRip- от New-Team

15 | 1

1.09 ГБ

В этой теме нет новых непрочитанных сообщений. Призраки покидают вершины (1955) VHSRip- от New-Team

1 | 1

1.09 ГБ




Вы не можете начинать темы
Вы не можете отвечать на сообщения
Вы не можете редактировать свои сообщения
Вы не можете удалять свои сообщения
Вы не можете добавлять вложения

Перейти:  
Для Мосгорсуда, Роскомнадзора и рекламодателей: mosgorsud-torrent[собачка]yandex.ru
 Вход
ppkBB3cker v.2 © 2008-2014 @ PPK
[ Time : 0.060s | 18 Queries | GZIP : Off ]

cron