img image001 image001 image001 image001 image001 image001 image001 image001 image001 image001 image001 image001 image001 image001 image001

Planets Sun Sun Sun
Статистика раздачи
Автор: Nickolas3434 | Размер: 1.03 ГБ | Добавлен: 04 янв 2018
Раздают: 17    Качают: 0
Скачать торрент
Скачать торрент
Описание торрента

СообщениеДобавлено: 04 янв 2018 

Фантазёры

Год выпуска: 1965
Жанр: Детский, экранизация
Выпущено: СССР, Киностудия им. М. Горького
Продолжительность: 01:02:55
Режиссер: Исаак Магитон
В ролях: Яков Овчуков-Суворов, Олег Хренников, Олег Цуприков, Юрий Никулин ст., Сережа Рыжев, Лена Новикова, Светлана Харитонова, Николай Граббе, Лидия Королёва, Татьяна Панкова, Нина Ровбуть
О фильме: Это прекрасный увлекательный фильм для всей семьи, но в первую очередь он адресован детям младшего возраста. Фильм поставлен по мотивам юмористических рассказов детского писателя Николая Носова: "Фантазёры", "Карасик", "Огурцы". Главные герои — юные фантазеры. Они никого не обманывают, просто придумывают необыкновенные истории, и сами в них верят.

Кодек: х264
Качество: DVDRip-AVC
Видео: MPEG-4 AVC, [email protected], 25 fps, 2150 Кбит/с
Аудио: Русский AC3, 2 ch, 192 Кбит/с

x264 [info]: frame I:582 Avg QP:15.17 size: 66296
x264 [info]: frame P:23805 Avg QP:18.84 size: 23359
x264 [info]: frame B:70023 Avg QP:20.71 size: 5998
Общее
Уникальный идентификатор : 219724168572017075127016648864544849136 (0xA54D55E84C69CBDCB4A882B62D97FCF0)
Полное имя : E:Мои рипыФантазеры 1965 DVD-AVC_KORSAR.mkv
Формат : Matroska
Версия формата : Version 2
Размер файла : 1,03 Гбайт
Продолжительность : 1 ч. 2 м.
Общий поток : 2343 Кбит/сек
Дата кодирования : UTC 2018-01-03 00:09:06
Программа кодирования : mkvmerge v5.8.0 ('No Sleep / Pillow') built on Sep 2 2012 15:37:04
Библиотека кодирования : libebml v1.2.3 + libmatroska v1.3.0
Видео
Идентификатор : 1
Формат : AVC
Формат/Информация : Advanced Video Codec
Профиль формата : [email protected]
Настройки формата : CABAC / 15 Ref Frames
Параметр CABAC формата : Да
Параметр RefFrames формата : 15 кадров
Идентификатор кодека : V_MPEG4/ISO/AVC
Продолжительность : 1 ч. 2 м.
Битрейт : 2150 Кбит/сек
Ширина : 684 пикселя
Высота : 552 пикселя
Соотношение сторон : 4:3
Соотношение сторон в оригинале : 4:3
Режим частоты кадров : Постоянный
Частота кадров : 25,000 кадров/сек
Цветовое пространство : YUV
Субдискретизация насыщенности : 4:2:0
Битовая глубина : 8 бит
Тип развёртки : Прогрессивная
Бит/(Пиксели*Кадры) : 0.228
Размер потока : 947 Мбайт (90%)
Библиотека кодирования : x264 core 152 r2851kMod ba24899
Настройки программы : cabac=1 / ref=15 / deblock=1:-2:-1 / analyse=0x3:0x133 / me=umh / subme=11 / psy=1 / fade_compensate=0.00 / psy_rd=1.05:0.10 / mixed_ref=1 / me_range=48 / chroma_me=1 / trellis=2 / 8x8dct=1 / cqm=0 / deadzone=21,11 / fast_pskip=0 / chroma_qp_offset=-3 / threads=12 / lookahead_threads=2 / sliced_threads=0 / nr=0 / decimate=0 / interlaced=0 / bluray_compat=0 / constrained_intra=0 / bframes=9 / b_pyramid=2 / b_adapt=2 / b_bias=0 / direct=3 / weightb=1 / open_gop=0 / weightp=2 / keyint=250 / keyint_min=25 / scenecut=40 / intra_refresh=0 / rc_lookahead=40 / rc=2pass / mbtree=0 / bitrate=2150 / ratetol=1.0 / qcomp=0.60 / qpmin=0 / qpmax=39 / qpstep=4 / cplxblur=20.0 / qblur=0.5 / vbv_maxrate=50000 / vbv_bufsize=62500 / nal_hrd=none / filler=0 / ip_ratio=1.40 / pb_ratio=1.30 / aq=1:0.90
Язык : English
Default : Да
Forced : Нет
Цветовой диапазон : Limited
Основные цвета : BT.601 PAL
Характеристики трансфера : BT.470 System B, BT.470 System G
Коэффициенты матрицы : BT.470 System B, BT.470 System G
Аудио
Идентификатор : 2
Формат : AC-3
Формат/Информация : Audio Coding 3
Параметр Endianness формата : Big
Идентификатор кодека : A_AC3
Продолжительность : 1 ч. 2 м.
Вид битрейта : Постоянный
Битрейт : 192 Кбит/сек
Каналы : 2 канала
Расположение каналов : Front: L R
Частота : 48,0 КГц
Частота кадров : 31,250 кадров/сек (1536 SPF)
Битовая глубина : 16 бит
Метод сжатия : С потерями
Размер потока : 86,4 Мбайт (8%)
Default : Да
Forced : Нет




   Похожие торренты   Торрент   Размер 
В этой теме нет новых непрочитанных сообщений. Фантазеры (1965) DVDRip

39 | 2

1.21 ГБ

В этой теме нет новых непрочитанных сообщений. Фантазеры (1965) DVDRip

45 | 6

701.07 МБ

В этой теме нет новых непрочитанных сообщений. Фантазеры (1965) DVD5

39 | 2

3.57 ГБ

В этой теме нет новых непрочитанных сообщений. Николай Носов - Фантазёры (2010) MP3

12 | 4

328.6 МБ

В этой теме нет новых непрочитанных сообщений. Николай Носов - Фантазёры (чит. Лев Дуров) (2007) MP3

14 | 6

107.16 МБ

В этой теме нет новых непрочитанных сообщений. Фантазёры / Фэнтестикс / The Fantasticks (1995) HDTV 1080i | P2

5 | 2

3.64 ГБ

В этой теме нет новых непрочитанных сообщений. Жить (2011) DVDRip-AVC от KORSAR

96 | 5

2.56 ГБ




Вы не можете начинать темы
Вы не можете отвечать на сообщения
Вы не можете редактировать свои сообщения
Вы не можете удалять свои сообщения
Вы не можете добавлять вложения

Перейти:  
Для Мосгорсуда, Роскомнадзора и рекламодателей: mosgorsud-torrent[собачка]yandex.ru
 Вход
ppkBB3cker v.2 © 2008-2014 @ PPK
[ Time : 0.048s | 18 Queries | GZIP : Off ]

cron