img image001 image001 image001 image001 image001 image001 image001 image001 image001 image001 image001 image001 image001 image001 image001

Planets Sun Sun Sun
Статистика раздачи
Автор: Nickolas3434 | Размер: 19.94 ГБ | Добавлен: 04 янв 2018
Раздают: 18    Качают: 11
Скачать торрент
Скачать торрент
Описание торрента

СообщениеДобавлено: 04 янв 2018 

В поисках капитана Гранта

Год выпуска: 1985
Жанр: приключения, экранизация
Продолжительность: 01:04:39 + 01:04:30 + 01:03:43 + 01:03:25 +01:03:44 + 01:05:10 + 01:13:09
Режиссер: Станислав Говорухин
В ролях: Николай Еременко, Тамара Акулова, Лембит Ульфсак, Владимир Гостюхин, Олег Штефанко, Анатолий Рудаков, Руслан Курашов, Галина Струтинская, Александр Абдулов, Борис Хмельницкий, Владимир Смирнов, Марина Влади, Федор Одиноков, Джордже Росич, Явор Милушев, Анна Пенчева, Рудольф Мухин, Марин Янев, Пьер Оссейн, Петр Слабаков, Лычезар Стоянов, Владимир Жариков, Коста Цонев
Описание: Капитан Грант пустился в опасное плавание, чтобы основать вольное шотландское поселение на островах Тихого океана. Но его корабль терпит крушение, и лишь полуразмытая записка в бутылке доносит обрывочные сведения о Гранте. Лорд Гленарван на свой страх и риск отправляется на поиски, взяв с собой детей капитана - Мэри и Роберта. Путь отважных путешественников лежит через острова Атлантики, горы и пампасы Новой Зеландии и Австралии, просторы Тихого океана, где их поджидают всевозможные приключения...

Кодек: х264
Качество:WEB-DLRip-AVC
Видео: MPEG-4 AVC, 864x648, 25 fps, ~4980 Кбит/с
Звук: AC3, 6 ch, 448 Кбит/с, AC3, 2 ch, 192 Кбит/с

x264 [info]: frame I:555 Avg QP:19.12 size:108133
x264 [info]: frame P:23555 Avg QP:20.68 size: 57953
x264 [info]: frame B:72880 Avg QP:23.07 size: 14350
Общее
Уникальный идентификатор : 204104888712021843450695957791270292568 (0x998D2BF44F75C5B2A60D668E4AFCCC58)
Полное имя : D:В поисках капитана Гранта_1985-WEB-DLRip-AVC_KORSARГрант-1.mkv
Формат : Matroska
Версия формата : Version 2
Размер файла : 2,59 Гбайт
Продолжительность : 1 ч. 4 м.
Общий поток : 5737 Кбит/сек
Название фильма : В поисках капитана Гранта_1985-WEB-DLRip-AVC_KORSAR
Дата кодирования : UTC 2017-10-15 10:18:15
Программа кодирования : mkvmerge v5.8.0 ('No Sleep / Pillow') built on Sep 2 2012 15:37:04
Библиотека кодирования : libebml v1.2.3 + libmatroska v1.3.0
Видео
Идентификатор : 1
Формат : AVC
Формат/Информация : Advanced Video Codec
Профиль формата : [email protected]
Параметр CABAC формата : Да
Параметр RefFrames формата : 14 кадров
Идентификатор кодека : V_MPEG4/ISO/AVC
Продолжительность : 1 ч. 4 м.
Битрейт : 4983 Кбит/сек
Ширина : 864 пикселя
Высота : 648 пикселей
Соотношение сторон : 4:3
Режим частоты кадров : Постоянный
Частота кадров : 25,000 кадров/сек
Цветовое пространство : YUV
Субдискретизация насыщенности : 4:2:0
Битовая глубина : 8 бит
Тип развёртки : Прогрессивная
Бит/(Пиксели*Кадры) : 0.356
Размер потока : 2,25 Гбайт (87%)
Библиотека кодирования : x264 core 148 r2744kMod b97ae06
Настройки программы : cabac=1 / ref=14 / deblock=1:-1:-1 / analyse=0x3:0x113 / me=umh / subme=10 / psy=1 / fade_compensate=0.00 / psy_rd=1.00:0.00 / mixed_ref=1 / me_range=32 / chroma_me=1 / trellis=2 / 8x8dct=1 / cqm=0 / deadzone=21,11 / fast_pskip=1 / chroma_qp_offset=-2 / threads=12 / lookahead_threads=2 / sliced_threads=0 / nr=0 / decimate=1 / interlaced=0 / bluray_compat=0 / constrained_intra=0 / bframes=9 / b_pyramid=2 / b_adapt=2 / b_bias=0 / direct=1 / weightb=1 / open_gop=0 / weightp=2 / keyint=250 / keyint_min=25 / scenecut=40 / intra_refresh=0 / rc=crf / mbtree=0 / crf=17.3000 / qcomp=0.63 / qpmin=0 / qpmax=39 / qpstep=4 / ip_ratio=1.40 / pb_ratio=1.30 / aq=2:0.70
Язык : English
Default : Да
Forced : Нет
Цветовой диапазон : Limited
Основные цвета : BT.709
Характеристики трансфера : BT.709
Коэффициенты матрицы : BT.709
Аудио #1
Идентификатор : 2
Формат : AC-3
Формат/Информация : Audio Coding 3
Параметр Endianness формата : Big
Идентификатор кодека : A_AC3
Продолжительность : 1 ч. 4 м.
Вид битрейта : Постоянный
Битрейт : 448 Кбит/сек
Каналы : 6 каналов
Расположение каналов : Front: L C R, Side: L R, LFE
Частота : 48,0 КГц
Частота кадров : 31,250 кадров/сек (1536 SPF)
Битовая глубина : 16 бит
Метод сжатия : С потерями
Задержка видео : 402 мс.
Размер потока : 207 Мбайт (8%)
Язык : Russian
Default : Да
Forced : Нет
Аудио #2
Идентификатор : 3
Формат : AC-3
Формат/Информация : Audio Coding 3
Параметр Endianness формата : Big
Идентификатор кодека : A_AC3
Продолжительность : 1 ч. 4 м.
Вид битрейта : Постоянный
Битрейт : 192 Кбит/сек
Каналы : 2 канала
Расположение каналов : Front: L R
Частота : 48,0 КГц
Частота кадров : 31,250 кадров/сек (1536 SPF)
Битовая глубина : 16 бит
Метод сжатия : С потерями
Задержка видео : 402 мс.
Размер потока : 88,8 Мбайт (3%)
Язык : Russian
Default : Нет
Forced : Нет
Меню
00:00:00.000 : en:Chapter 1
00:02:40.920 : en:Chapter 2
00:08:17.040 : en:Chapter 3
00:14:14.520 : en:Chapter 4
00:20:43.080 : en:Chapter 5
00:27:14.760 : en:Chapter 6
00:32:44.280 : en:Chapter 7
00:38:29.040 : en:Chapter 8
00:40:53.400 : en:Chapter 9
00:46:07.080 : en:Chapter 10
00:54:54.000 : en:Chapter 11
00:58:24.360 : en:Chapter 12
01:04:39.120 : en:Chapter 13




   Похожие торренты   Торрент   Размер 
В этой теме нет новых непрочитанных сообщений. В поисках капитана Гранта (1985) DVDRip

71 | 13

8.17 ГБ

В этой теме нет новых непрочитанных сообщений. В поисках капитана Гранта (1985) DVDRip-AVC

390 | 51

7.66 ГБ

В этой теме нет новых непрочитанных сообщений. В поисках капитана Гранта (1985) DVDRip

572 | 62

7.87 ГБ

В этой теме нет новых непрочитанных сообщений. В поисках капитана Гранта (1985) 3xDVD9 от New-Team | Лицензия

9 | 0

23.15 ГБ

В этой теме нет новых непрочитанных сообщений. Дети капитана Гранта (1936) DVDRip от New-Team

48 | 9

1.45 ГБ

В этой теме нет новых непрочитанных сообщений. Жюль Верн - Дети капитана Гранта (2010) MP3

120 | 23

1.38 ГБ

В этой теме нет новых непрочитанных сообщений. Дети капитана Гранта (1936) DVDRip от Generalfilm

40 | 6

1.46 ГБ




Вы не можете начинать темы
Вы не можете отвечать на сообщения
Вы не можете редактировать свои сообщения
Вы не можете удалять свои сообщения
Вы не можете добавлять вложения

Перейти:  
Для Мосгорсуда, Роскомнадзора и рекламодателей: mosgorsud-torrent[собачка]yandex.ru
 Вход
ppkBB3cker v.2 © 2008-2014 @ PPK
[ Time : 0.066s | 20 Queries | GZIP : Off ]

cron