img image001 image001 image001 image001 image001 image001 image001 image001 image001 image001 image001 image001 image001 image001 image001

Planets Sun Sun Sun
Статистика раздачи
Автор: Nickolas3434 | Размер: 4.16 ГБ | Добавлен: 06 янв 2018
Раздают: 39    Качают: 2
Скачать торрент
Скачать торрент
Описание торрента

СообщениеДобавлено: 06 янв 2018 

Информация о фильме
Название: Главный
Год выхода: 2015
Жанр: история, драма
Страна: Россия
Студия: Киностудия «Мастер»
Продолжительность: 01:45:45
Перевод: Оригинал | iTunes
Режиссер: Юрий Кара
В ролях: Валерий Гришко, Борис Щербаков, Лидия Арефьева, Алексей Богачук, Фёдор Лавров, Георгий Солдатов, Борис Каморзин, Анатолий Котенёв, Вадим Андреев, Александр Кузнецов
О фильме
Все знают, что Сергей Королев запустил в космос и Первый искусственный спутник Земли, и Лайку, и Гагарина, и вывел в открытый космос Алексея Леонова. Но никто не знает, насколько ему было трудно преодолеть и косность партийного руководства, и недоверие коллег. Но, как сказал один из его соратников, что у Королева все получалось потому, что ему верили и знали, что он знает, куда надо идти.

Файл
Кодек: х264
Качество: WEB-DL 1080p
Видео: MPEG-4 AVC, 1920x1080 (16:9), 25.000 fps, 5252 Kbps
Аудио: AC3, 48 kHz, 5.1 ch, 384 Kbps | RUS
Субтитры: Нет
Навигация по главам: Есть

Общее
Уникальный идентификатор : 251937099998896763448059103944657822531 (0xBD89520C38E0D00FBADEFCE1A0076343)
Полное имя : Главный.2015.WEB-DL.1080p.mkv
Формат : Matroska
Версия формата : Version 4 / Version 2
Размер файла : 4,16 Гбайт
Продолжительность : 1 ч. 45 м.
Общий поток : 5637 Кбит/сек
Название фильма : Главный.2015.WEB-DL.1080p
Дата кодирования : UTC 2016-02-20 19:34:11
Программа кодирования : mkvmerge v7.1.0 ('Good Love') 64bit built on Jul 27 2014 13:06:55
Библиотека кодирования : libebml v1.3.0 + libmatroska v1.4.1
Видео
Идентификатор : 1
Формат : AVC
Формат/Информация : Advanced Video Codec
Профиль формата : [email protected]
Параметр CABAC формата : Да
Параметр RefFrames формата : 4 кадра
Идентификатор кодека : V_MPEG4/ISO/AVC
Продолжительность : 1 ч. 45 м.
Битрейт : 5252 Кбит/сек
Ширина : 1920 пикселей
Высота : 1080 пикселей
Соотношение сторон : 16:9
Режим частоты кадров : Постоянный
Частота кадров : 25,000 кадров/сек
Цветовое пространство : YUV
Субдискретизация насыщенности : 4:2:0
Битовая глубина : 8 бит
Тип развёртки : Прогрессивная
Бит/(Пиксели*Кадры) : 0.101
Размер потока : 3,88 Гбайт (93%)
Заголовок : Главный.2015.WEB-DL.1080p
Язык : Russian
Default : Да
Forced : Нет
Цветовой диапазон : Limited
Основные цвета : BT.709
Характеристики трансфера : BT.709
Коэффициенты матрицы : BT.709
Аудио
Идентификатор : 2
Формат : AC-3
Формат/Информация : Audio Coding 3
Параметр Endianness формата : Big
Идентификатор кодека : A_AC3
Продолжительность : 1 ч. 45 м.
Вид битрейта : Постоянный
Битрейт : 384 Кбит/сек
Каналы : 6 каналов
Расположение каналов : Front: L C R, Side: L R, LFE
Частота : 48,0 КГц
Частота кадров : 31,250 кадров/сек (1536 SPF)
Битовая глубина : 16 бит
Метод сжатия : С потерями
Размер потока : 290 Мбайт (7%)
Заголовок : Оригинал (iTunes)
Язык : Russian
Default : Да
Forced : Нет
Меню
00:00:00.000 : en:Глава 1
00:05:24.280 : en:Глава 2
00:12:39.720 : en:Глава 3
00:17:58.600 : en:Глава 4
00:24:22.720 : en:Глава 5
00:31:16.600 : en:Глава 6
00:36:24.200 : en:Глава 7
00:41:11.400 : en:Глава 8
00:48:53.440 : en:Глава 9
00:55:32.640 : en:Глава 10
01:02:05.320 : en:Глава 11
01:06:26.360 : en:Глава 12
01:16:56.080 : en:Глава 13
01:24:03.760 : en:Глава 14
01:38:04.640 : en:Глава 15



   Похожие торренты   Торрент   Размер 
В этой теме нет новых непрочитанных сообщений. Главный (2015) WEB-DLRip-AVC | iTunes

655 | 58

1.46 ГБ

В этой теме нет новых непрочитанных сообщений. Главный (2015) WEB-DLRip | iTunes

708 | 31

1.46 ГБ

В этой теме нет новых непрочитанных сообщений. Главный (2015) WEB-DLRip | iTunes

395 | 31

743.47 МБ

В этой теме нет новых непрочитанных сообщений. Главный (2015) WEB-DLRip от Twi7ter | iTunes

631 | 29

1.46 ГБ

В этой теме нет новых непрочитанных сообщений. Главный (2015) WEBRip

3045 | 111

1.37 ГБ

В этой теме нет новых непрочитанных сообщений. Главный охотник на ведьм / Великий инквизитор / Witchfinder General (1968) BDRemux 1080p | A

6 | 11

19.32 ГБ

В этой теме нет новых непрочитанных сообщений. Главный (2015) WEBRip от torrentfilm

476 | 45

747.95 МБ




Вы не можете начинать темы
Вы не можете отвечать на сообщения
Вы не можете редактировать свои сообщения
Вы не можете удалять свои сообщения
Вы не можете добавлять вложения

Перейти:  
Для Мосгорсуда, Роскомнадзора и рекламодателей: mosgorsud-torrent[собачка]yandex.ru
 Вход
ppkBB3cker v.2 © 2008-2014 @ PPK
[ Time : 0.058s | 20 Queries | GZIP : Off ]

cron