img image001 image001 image001 image001 image001 image001 image001 image001 image001 image001 image001 image001 image001 image001 image001

Planets Sun Sun Sun
Статистика раздачи
Автор: Nickolas3434 | Размер: 2.73 ГБ | Добавлен: 06 янв 2018
Раздают: 62    Качают: 4
Скачать торрент
Скачать торрент
Описание торрента

СообщениеДобавлено: 06 янв 2018 

Информация о фильме
Название: Подкидыш
Год выхода: 1939
Жанр: Комедия, детский, семейный
Режиссер: Татьяна Лукашевич
В ролях: Фаина Раневская, Пётр Репнин, Вероника Лебедева, Ростислав Плятт, Рина Зелёная, Ольга Жизнева, Татьяна Барышева, Дмитрий Глухов, Фёдор Одиноков, Николай Юдин
О фильме:
Комедия Татьяны Лукашевич 'Подкидыш'- один из самых первых семейных фильмов в Советском Союзе, сценаристами которого стали знаменитая актриса театра и кино Рина Зеленая и писательница Агния Барто. В этом фильме снялись легенды советского кино Фаина Раневская, Петр Репнин, Ростислав Плятт и сама Рина Зеленая. А придуманная гениальной актрисой Фаиной Раневской фраза «Муля! Не нервируй меня!» стала крылатой. Маленькая Наташа вышла из дома и потерялась в большом городе. В её судьбе приняли участие все, кого она встретила в своём увлекательном, полном весёлых приключений путешествии. Всё, конечно, закончилось хорошо. А пока Наташа блуждала по городу, она приобрела много друзей и среди взрослых и среди детей.

Страна: СССР
Студия: Мосфильм
Продолжительность: 01:12:41
Перевод: Не требуется
Файл
Кодек: h.264
Качество: WEB-DLRip 1080p
Видео: MPEG-4 AVC, 5120 Кбит/с, 1920x1080, 25,000 кадр/с
Звук: Русский (AC3, 2 ch, 256 Кбит/с)
Субтитры: Нет
Семпл
General
Unique ID : 205534848441146271741237118163365669302 (0x9AA09269882D1410A38E5B42430829B6)
Complete name : D:uTorrentPodkidysh.1939.WEB-DLRip.1080p.MediaClub.mkv
Format : Matroska
Format version : Version 4 / Version 2
File size : 2.73 GiB
Duration : 1 h 12 min
Overall bit rate : 5 369 kb/s
Encoded date : UTC 2018-01-05 10:26:28
Writing application : mkvmerge v17.0.0 ('Be Ur Friend') 64-bit
Writing library : libebml v1.3.5 + libmatroska v1.4.8
Video
ID : 1
Format : AVC
Format/Info : Advanced Video Codec
Format profile : [email protected]
Format settings : CABAC / 4 Ref Frames
Format settings, CABAC : Yes
Format settings, RefFrames : 4 frames
Codec ID : V_MPEG4/ISO/AVC
Duration : 1 h 12 min
Bit rate : 5 120 kb/s
Width : 1 920 pixels
Height : 1 080 pixels
Display aspect ratio : 16:9
Frame rate mode : Constant
Frame rate : 25.000 FPS
Color space : YUV
Chroma subsampling : 4:2:0
Bit depth : 8 bits
Scan type : Progressive
Bits/(Pixel*Frame) : 0.099
Stream size : 2.59 GiB (95%)
Title : WEB-DLRip by Silverok
Writing library : x264 core 142
Encoding settings : cabac=1 / ref=3 / deblock=1:0:0 / analyse=0x3:0x113 / me=hex / subme=7 / psy=1 / psy_rd=1.00:0.00 / mixed_ref=1 / me_range=16 / chroma_me=1 / trellis=1 / 8x8dct=1 / cqm=0 / deadzone=21,11 / fast_pskip=1 / chroma_qp_offset=-2 / threads=48 / lookahead_threads=8 / sliced_threads=0 / nr=0 / decimate=1 / interlaced=0 / bluray_compat=0 / constrained_intra=0 / bframes=6 / b_pyramid=2 / b_adapt=1 / b_bias=0 / direct=1 / weightb=1 / open_gop=0 / weightp=2 / keyint=50 / keyint_min=26 / scenecut=0 / intra_refresh=0 / rc_lookahead=40 / rc=2pass / mbtree=1 / bitrate=5120 / ratetol=1.0 / qcomp=0.60 / qpmin=0 / qpmax=69 / qpstep=4 / cplxblur=20.0 / qblur=0.5 / vbv_maxrate=7680 / vbv_bufsize=20480 / nal_hrd=none / filler=0 / ip_ratio=1.40 / aq=1:1.00
Default : Yes
Forced : No
Audio
ID : 2
Format : AC-3
Format/Info : Audio Coding 3
Codec ID : A_AC3
Duration : 1 h 12 min
Bit rate mode : Constant
Bit rate : 256 kb/s
Channel(s) : 2 channels
Channel positions : Front: L R
Sampling rate : 48.0 kHz
Frame rate : 31.250 FPS (1536 SPF)
Bit depth : 16 bits
Compression mode : Lossy
Stream size : 133 MiB (5%)
Language : Russian
Service kind : Complete Main
Default : Yes
Forced : No


Релиз от: | Silverok



   Похожие торренты   Торрент   Размер 
В этой теме нет новых непрочитанных сообщений. Подкидыш (1939) DVDRip от MediaClub | КПК | Цветная версия

28 | 3

311.3 МБ

В этой теме нет новых непрочитанных сообщений. Подкидыш (1939) DVDRip-AVC от New-Team | Цветная версия

163 | 20

1.09 ГБ

В этой теме нет новых непрочитанных сообщений. Подкидыш (1939) DVDRip от New-Team | Цветная версия

25 | 7

743.77 МБ

В этой теме нет новых непрочитанных сообщений. Подкидыш (1939) DVDRip от New-Team | Цветная версия

62 | 8

1.09 ГБ

В этой теме нет новых непрочитанных сообщений. Веселые ребята (1934) WEB-DLRip 1080p от MediaClub | Цветная версия

58 | 1

3.36 ГБ

В этой теме нет новых непрочитанных сообщений. Волга-Волга (1938) WEB-DLRip 1080p от MediaClub | Цветная версия

71 | 10

3.71 ГБ

В этой теме нет новых непрочитанных сообщений. Подкидыш (1939) DVD5

13 | 3

3.71 ГБ




Вы не можете начинать темы
Вы не можете отвечать на сообщения
Вы не можете редактировать свои сообщения
Вы не можете удалять свои сообщения
Вы не можете добавлять вложения

Перейти:  
Для Мосгорсуда, Роскомнадзора и рекламодателей: mosgorsud-torrent[собачка]yandex.ru
 Вход
ppkBB3cker v.2 © 2008-2014 @ PPK
[ Time : 2.383s | 18 Queries | GZIP : Off ]

cron