img image001 image001 image001 image001 image001 image001 image001 image001 image001 image001 image001 image001 image001 image001 image001

Planets Sun Sun Sun
Статистика раздачи
Автор: Nickolas3434 | Размер: 3.71 ГБ | Добавлен: 06 янв 2018
Раздают: 71    Качают: 6
Скачать торрент
Скачать торрент
Описание торрента

СообщениеДобавлено: 06 янв 2018 

Информация о фильме
Название: Волга-Волга
Год выхода: 1938
Жанр: Комедия, мюзикл
Режиссер: Григорий Александров
В ролях: Игорь Ильинский, Любовь Орлова, Павел Оленев, Андрей Тутышкин, Сергей Антимонов, Владимир Володин, Мария Миронова ст., Всеволод Санаев, Эммануил Геллер, Никита Кондратьев, Иван Чувелев, Анатолий Шалаев, Алексей Долинин
О фильме:
Музыкальная комедия «Волга-Волга», снятая Григорием Александровым в 1938 году, давно стала классикой советского кинематографа. Теперь посмотреть ее можно и в цветной версии!Можно сказать, что эта веселая история основана на реальных событиях. В 30-е годы XX века в СССР проводилось большое количество всевозможных творческих конкурсов. Их общей целью было доказать справедливость сталинского тезиса «Жить стало лучше, жить стало веселее». На одном из таких смотров талантов Григорий Александров познакомился с деревенской девушкой, которую начальство ни при каких условиях не хотело отпускать на съемки в столицу. Словом, на пути народа к творческой самодеятельности встал бюрократизм. Эта мысль и легла в основу новой комедии Александрова.В картине начальника управления мелкой кустарной промышленности Бывалова обязуют отправить в столицу людей для участия в музыкальной олимпиаде. Но Бывалов уверен: талантов в его маленьком городке нет. Не согласны с ним два творческих коллектива города Мелководска. Их руководители – Дуня Петрова и Алексей Трубышкин – уверены, что выступление должно состояться. Для этого им, правда, придется найти способ добраться до столицы. Фильм задумывался как эпическое полотно, способное запечатлеть все достижения Советского Союза в 1930-х годах. Неудивительно, что работа над ним продолжалась в течение 4 лет. Но в итоге комедия «Волга-Волга» стала любимым фильмом Сталина.

Страна: СССР
Студия: Мосфильм
Продолжительность: 01:38:58
Перевод: Не требуется
Файл
Кодек: h.264
Качество: WEB-DLRip 1080p
Видео: MPEG-4 AVC, 5120 Кбит/с, 1920x1080, 25,000 кадр/с
Звук: Русский (AC3, 2 ch, 256 Кбит/с)
Субтитры: Нет
Семпл
General
Unique ID : 175971941728235241629791939969518690582 (0x8462F693EC7B519198A264277EEC6116)
Complete name : D:uTorrentVolga-Volga.1938.WEB-DLRip.1080p.MediaClub.mkv
Format : Matroska
Format version : Version 4 / Version 2
File size : 3.71 GiB
Duration : 1 h 38 min
Overall bit rate : 5 369 kb/s
Encoded date : UTC 2018-01-05 18:29:59
Writing application : mkvmerge v17.0.0 ('Be Ur Friend') 64-bit
Writing library : libebml v1.3.5 + libmatroska v1.4.8
Video
ID : 1
Format : AVC
Format/Info : Advanced Video Codec
Format profile : [email protected]
Format settings : CABAC / 4 Ref Frames
Format settings, CABAC : Yes
Format settings, RefFrames : 4 frames
Codec ID : V_MPEG4/ISO/AVC
Duration : 1 h 38 min
Bit rate : 5 120 kb/s
Width : 1 920 pixels
Height : 1 080 pixels
Display aspect ratio : 16:9
Frame rate mode : Constant
Frame rate : 25.000 FPS
Color space : YUV
Chroma subsampling : 4:2:0
Bit depth : 8 bits
Scan type : Progressive
Bits/(Pixel*Frame) : 0.099
Stream size : 3.53 GiB (95%)
Title : WEB-DLRip by Silverok
Writing library : x264 core 142
Encoding settings : cabac=1 / ref=3 / deblock=1:0:0 / analyse=0x3:0x113 / me=hex / subme=7 / psy=1 / psy_rd=1.00:0.00 / mixed_ref=1 / me_range=16 / chroma_me=1 / trellis=1 / 8x8dct=1 / cqm=0 / deadzone=21,11 / fast_pskip=1 / chroma_qp_offset=-2 / threads=36 / lookahead_threads=6 / sliced_threads=0 / nr=0 / decimate=1 / interlaced=0 / bluray_compat=0 / constrained_intra=0 / bframes=6 / b_pyramid=2 / b_adapt=1 / b_bias=0 / direct=1 / weightb=1 / open_gop=0 / weightp=2 / keyint=50 / keyint_min=26 / scenecut=0 / intra_refresh=0 / rc_lookahead=40 / rc=2pass / mbtree=1 / bitrate=5120 / ratetol=1.0 / qcomp=0.60 / qpmin=0 / qpmax=69 / qpstep=4 / cplxblur=20.0 / qblur=0.5 / vbv_maxrate=7680 / vbv_bufsize=20480 / nal_hrd=none / filler=0 / ip_ratio=1.40 / aq=1:1.00
Default : Yes
Forced : No
Audio
ID : 2
Format : AC-3
Format/Info : Audio Coding 3
Codec ID : A_AC3
Duration : 1 h 38 min
Bit rate mode : Constant
Bit rate : 256 kb/s
Channel(s) : 2 channels
Channel positions : Front: L R
Sampling rate : 48.0 kHz
Frame rate : 31.250 FPS (1536 SPF)
Bit depth : 16 bits
Compression mode : Lossy
Stream size : 181 MiB (5%)
Language : Russian
Service kind : Complete Main
Default : Yes
Forced : No


Релиз от: | Silverok



   Похожие торренты   Торрент   Размер 
В этой теме нет новых непрочитанных сообщений. Волга-Волга (1938) DVDRip от MediaClub | КПК | Цветная версия

33 | 13

447.14 МБ

В этой теме нет новых непрочитанных сообщений. Волга-Волга (1938) HDTVRip 1080p от balshik | Цветная версия

55 | 13

6.02 ГБ

В этой теме нет новых непрочитанных сообщений. Волга-Волга (1938) HDTVRip от New-Team | Цветная версия

76 | 27

1.46 ГБ

В этой теме нет новых непрочитанных сообщений. Волга-Волга (1938) HDTVRip от New-Team | Цветная версия

20 | 11

745.11 МБ

В этой теме нет новых непрочитанных сообщений. Волга-Волга (1938) HDTVRip-AVC от New-Team | Цветная версия

65 | 13

1.46 ГБ

В этой теме нет новых непрочитанных сообщений. Волга-Волга (1938) DVDRip от Шкипер | Цветная версия

165 | 24

748.85 МБ

В этой теме нет новых непрочитанных сообщений. Волга-Волга (1938) HDTVRip-AVC от ExKinoRay | Цветная версия

54 | 22

3.05 ГБ




Вы не можете начинать темы
Вы не можете отвечать на сообщения
Вы не можете редактировать свои сообщения
Вы не можете удалять свои сообщения
Вы не можете добавлять вложения

Перейти:  
Для Мосгорсуда, Роскомнадзора и рекламодателей: mosgorsud-torrent[собачка]yandex.ru
 Вход
ppkBB3cker v.2 © 2008-2014 @ PPK
[ Time : 0.053s | 19 Queries | GZIP : Off ]

cron