img image001 image001 image001 image001 image001 image001 image001 image001 image001 image001 image001 image001 image001 image001 image001

Planets Sun Sun Sun
Статистика раздачи
Автор: Nickolas3434 | Размер: 747.8 МБ | Добавлен: 12 янв 2018
Раздают: 112    Качают: 2
Скачать торрент
Скачать торрент
Описание торрента

СообщениеДобавлено: 12 янв 2018 

Информация о фильме
Оригинальное название: Сибирский потрошитель
Год выхода: 2016
Жанр: Ужасы, триллер, драма
Режиссер: Сергей Жизненный
В ролях: Дарья Рева, Юлия Радаева, Анастасия Комарова, Вера Базанова, Алексей Шарков, Александр Пикалов, Юрий Борисенко, Елена Речкова, Евгения Ширяева, Илья Бородин, Татьяна Филиппова, Анна Евтина, Екатерина Воронцова, Кирилл Игнатов, Дмитрий Нестеров, Пётр Романенко, Вадим Белобородов, Андроник Гейвах, Сергей Жизненный
О фильме:
Фильм основан на реальных событиях, повествующий о тяжких злодеяниях российского серийного убийцы, каннибала — Александра Николаевича Спесивцева, получившего прозвище "Сибирский потрошитель"...
Выпущено: Россия, Жисталл
Продолжительность: 01:20:00
Язык: Русский
Файл
Кодек: H.264
Качество: WEB-DLRip-AVC
Видео: MPEG-4 AVC, 1114 Кбит/с, 720x296
Звук: Русский (AC3, 2 ch, 192 Кбит/с)
Внимание: В фильме присутствуют сцены жестокости
Возрастное ограничение - 18+
Формат : Matroska
Версия формата : Version 4 / Version 2
Размер файла : 748 Мбайт
Продолжительность : 1 ч. 20 м.
Общий поток : 1307 Кбит/сек
Название фильма : Siberian Ripper.2016.x264.WEB-DLRip-AVC.ExKinoRay
Дата кодирования : UTC 2018-01-05 14:27:34
Программа кодирования : mkvmerge v17.0.0 ('Be Ur Friend') 64-bit
Библиотека кодирования : libebml v1.3.5 + libmatroska v1.4.8
Видео
Идентификатор : 1
Формат : AVC
Формат/Информация : Advanced Video Codec
Профиль формата : [email protected]
Параметр CABAC формата : Да
Параметр ReFrames формата : 10 кадров
Идентификатор кодека : V_MPEG4/ISO/AVC
Продолжительность : 1 ч. 20 м.
Битрейт : 1114 Кбит/сек
Ширина : 720 пикселей
Высота : 296 пикселей
Соотношение сторон : 2,40:1
Режим частоты кадров : Постоянный
Частота кадров : 25,000 кадров/сек
Цветовое пространство : YUV
Субдискретизация насыщенности : 4:2:0
Битовая глубина : 8 бит
Тип развёртки : Прогрессивная
Бит/(Пиксели*Кадры) : 0.209
Размер потока : 637 Мбайт (85%)
Заголовок : ExKinoRay
Библиотека кодирования : x264 core 152 r2851 ba24899
Настройки программы : cabac=1 / ref=10 / deblock=1:-2:-2 / analyse=0x3:0x133 / me=umh / subme=11 / psy=1 / psy_rd=1.00:0.00 / mixed_ref=1 / me_range=32 / chroma_me=1 / trellis=2 / 8x8dct=1 / cqm=0 / deadzone=21,11 / fast_pskip=0 / chroma_qp_offset=-3 / threads=6 / lookahead_threads=1 / sliced_threads=0 / nr=0 / decimate=0 / interlaced=0 / bluray_compat=0 / constrained_intra=0 / bframes=10 / b_pyramid=2 / b_adapt=2 / b_bias=0 / direct=3 / weightb=1 / open_gop=0 / weightp=2 / keyint=250 / keyint_min=25 / scenecut=40 / intra_refresh=0 / rc_lookahead=40 / rc=2pass / mbtree=0 / bitrate=1114 / ratetol=1.0 / qcomp=0.60 / qpmin=0 / qpmax=69 / qpstep=4 / cplxblur=20.0 / qblur=0.5 / vbv_maxrate=50000 / vbv_bufsize=62500 / nal_hrd=none / filler=0 / ip_ratio=1.40 / pb_ratio=1.30 / aq=2:1.00
Язык : Russian
Default : Да
Forced : Нет
Аудио
Идентификатор : 2
Формат : AC-3
Формат/Информация : Audio Coding 3
Расширение режима : CM (complete main)
Параметр Endianness формата : Big
Идентификатор кодека : A_AC3
Продолжительность : 1 ч. 20 м.
Вид битрейта : Постоянный
Битрейт : 192 Кбит/сек
Каналы : 2 канала
Расположение каналов : Front: L R
Частота : 48,0 КГц
Частота кадров : 31,250 кадров/сек (1536 spf)
Метод сжатия : С потерями
Размер потока : 110 Мбайт (15%)
Default : Да
Forced : Нет



Релиз от:



   Похожие торренты   Торрент   Размер 
В этой теме нет новых непрочитанных сообщений. Сибирский потрошитель (2016) WEB-DLRip-AVC от ExKinoRay

879 | 5

1.14 ГБ

В этой теме нет новых непрочитанных сообщений. Сибирский потрошитель (2016) WEB-DLRip от GeneralFilm

208 | 8

744.76 МБ

В этой теме нет новых непрочитанных сообщений. Сибирский потрошитель (Сергей Жизненный) [2016, ужасы, триллер, драма, WEBRip] / Мистика

49 | 6

1.37 ГБ

В этой теме нет новых непрочитанных сообщений. Сибирский траффик (2015) WEB-DLRip-AVC от ExKinoRay

257 | 5

1.22 ГБ

В этой теме нет новых непрочитанных сообщений. Сибирский цирюльник (1998) DVDRip-AVC от ExKinoRay

421 | 28

2.87 ГБ

В этой теме нет новых непрочитанных сообщений. Сибирский траффик (2015) WEB-DLRip

7264 | 437

1.37 ГБ

В этой теме нет новых непрочитанных сообщений. Сибирский траффик (2015) WEB-DLRip от GeneralFilm

188 | 16

746.1 МБ




Вы не можете начинать темы
Вы не можете отвечать на сообщения
Вы не можете редактировать свои сообщения
Вы не можете удалять свои сообщения
Вы не можете добавлять вложения

Перейти:  
Для Мосгорсуда, Роскомнадзора и рекламодателей: mosgorsud-torrent[собачка]yandex.ru
 Вход
ppkBB3cker v.2 © 2008-2014 @ PPK
[ Time : 0.051s | 19 Queries | GZIP : Off ]

cron