img image001 image001 image001 image001 image001 image001 image001 image001 image001 image001 image001 image001 image001 image001 image001

Planets Sun Sun Sun
Статистика раздачи
Автор: Nickolas3434 | Размер: 1.14 ГБ | Добавлен: 12 янв 2018
Раздают: 879    Качают: 5
Скачать торрент
Скачать торрент
Описание торрента

СообщениеДобавлено: 12 янв 2018 

Информация о фильме
Оригинальное название: Сибирский потрошитель
Год выхода: 2016
Жанр: Ужасы, триллер, драма
Режиссер: Сергей Жизненный
В ролях: Дарья Рева, Юлия Радаева, Анастасия Комарова, Вера Базанова, Алексей Шарков, Александр Пикалов, Юрий Борисенко, Елена Речкова, Евгения Ширяева, Илья Бородин, Татьяна Филиппова, Анна Евтина, Екатерина Воронцова, Кирилл Игнатов, Дмитрий Нестеров, Пётр Романенко, Вадим Белобородов, Андроник Гейвах, Сергей Жизненный
Описание: Фильм основан на реальных событиях, повествующий о тяжких злодеяниях российского серийного убийцы, каннибала — Александра Николаевича Спесивцева, получившего прозвище "Сибирский потрошитель"... Ему долгое время удавалось оставаться на свободе и творить свои страшные дела, благодаря обычной бюрократической ошибке. В то время, когда он должен был отбывать принудительное лечение в психиатрической больнице, его выписали в период ремиссии, но запись об этом так и не была внесена в официальные документы.
Выпущено: Россия, Жисталл
Продолжительность: 01:20:00
Язык: Русский
Файл
Формат: MKV
Качество: WEB-DLRip-AVC
Видео: MPEG-4 AVC, 1024x422 (2.40:1), 25.000 fps, ~1846 kbps avg, 0.171 bit/pixel
Звук: Русский (AC3, 2 ch, 192 Кбит/с)
Внимание: В фильме присутствуют сцены жестокости
Возрастное ограничение - 18+
General
Unique ID : 204761745333479254031025536681669724165 (0x9A0BAD7C74566CE49826439676868805)
Complete name : D:Siberian Ripper.2016.AVC.ExKinoRay.mkv
Format : Matroska
Format version : Version 2
File size : 1.14 GiB
Duration : 1 h 20 min
Overall bit rate : 2 038 kb/s
Movie name : Siberian Ripper 2016 from ExKinoRay
Encoded date : UTC 2018-01-07 15:13:24
Writing application : mkvmerge v5.6.0 ('Kenya Kane') built on May 27 2012 16:44:04
Writing library : libebml v1.2.3 + libmatroska v1.3.0
Video
ID : 1
Format : AVC
Format/Info : Advanced Video Codec
Format profile : [email protected]
Format settings, CABAC : Yes
Format settings, ReFrames : 12 frames
Codec ID : V_MPEG4/ISO/AVC
Duration : 1 h 20 min
Bit rate : 1 846 kb/s
Width : 1 024 pixels
Height : 422 pixels
Display aspect ratio : 2.40:1
Frame rate mode : Constant
Frame rate : 25.000 FPS
Color space : YUV
Chroma subsampling : 4:2:0
Bit depth : 8 bits
Scan type : Progressive
Bits/(Pixel*Frame) : 0.171
Stream size : 1.01 GiB (89%)
Writing library : x264 core 152 r2851 ba24899
Encoding settings : cabac=1 / ref=12 / deblock=1:-2:-2 / analyse=0x3:0x113 / me=umh / subme=10 / psy=1 / psy_rd=1.00:0.05 / mixed_ref=1 / me_range=32 / chroma_me=1 / trellis=2 / 8x8dct=1 / cqm=0 / deadzone=21,11 / fast_pskip=0 / chroma_qp_offset=-3 / threads=12 / lookahead_threads=2 / sliced_threads=0 / nr=0 / decimate=0 / interlaced=0 / bluray_compat=0 / constrained_intra=0 / bframes=9 / b_pyramid=2 / b_adapt=2 / b_bias=0 / direct=3 / weightb=1 / open_gop=0 / weightp=2 / keyint=240 / keyint_min=24 / scenecut=40 / intra_refresh=0 / rc_lookahead=40 / rc=2pass / mbtree=0 / bitrate=1846 / ratetol=1.0 / qcomp=0.60 / qpmin=0 / qpmax=51 / qpstep=4 / cplxblur=20.0 / qblur=0.5 / vbv_maxrate=50000 / vbv_bufsize=62500 / nal_hrd=none / filler=0 / ip_ratio=1.40 / pb_ratio=1.30 / aq=1:0.90
Language : English
Default : Yes
Forced : No
Color range : Limited
Color primaries : BT.709
Transfer characteristics : BT.709
Matrix coefficients : BT.709
Audio
ID : 2
Format : AC-3
Format/Info : Audio Coding 3
Mode extension : CM (complete main)
Format settings, Endianness : Big
Codec ID : A_AC3
Duration : 1 h 20 min
Bit rate mode : Constant
Bit rate : 192 kb/s
Channel(s) : 2 channels
Channel positions : Front: L R
Sampling rate : 48.0 kHz
Frame rate : 31.250 FPS (1536 spf)
Compression mode : Lossy
Stream size : 110 MiB (9%)
Language : Russian
Default : Yes
Forced : No


Релиз от:
Автор релиза:



   Похожие торренты   Торрент   Размер 
В этой теме нет новых непрочитанных сообщений. Сибирский потрошитель (2016) WEB-DLRip-AVC от ExKinoRay

112 | 2

747.8 МБ

В этой теме нет новых непрочитанных сообщений. Сибирский потрошитель (2016) WEB-DLRip от GeneralFilm

208 | 8

744.76 МБ

В этой теме нет новых непрочитанных сообщений. Сибирский потрошитель (Сергей Жизненный) [2016, ужасы, триллер, драма, WEBRip] / Мистика

49 | 6

1.37 ГБ

В этой теме нет новых непрочитанных сообщений. Сибирский траффик (2015) WEB-DLRip-AVC от ExKinoRay

257 | 5

1.22 ГБ

В этой теме нет новых непрочитанных сообщений. Сибирский цирюльник (1998) DVDRip-AVC от ExKinoRay

421 | 28

2.87 ГБ

В этой теме нет новых непрочитанных сообщений. Сибирский траффик (2015) WEB-DLRip

7264 | 437

1.37 ГБ

В этой теме нет новых непрочитанных сообщений. Сибирский траффик (2015) WEB-DLRip от GeneralFilm

188 | 16

746.1 МБ




Вы не можете начинать темы
Вы не можете отвечать на сообщения
Вы не можете редактировать свои сообщения
Вы не можете удалять свои сообщения
Вы не можете добавлять вложения

Перейти:  
Для Мосгорсуда, Роскомнадзора и рекламодателей: mosgorsud-torrent[собачка]yandex.ru
 Вход
ppkBB3cker v.2 © 2008-2014 @ PPK
[ Time : 0.054s | 19 Queries | GZIP : Off ]

cron