img image001 image001 image001 image001 image001 image001 image001 image001 image001 image001 image001 image001 image001 image001 image001

Planets Sun Sun Sun
Статистика раздачи
Автор: Nickolas3434 | Размер: 1.71 ГБ | Добавлен: 12 янв 2018
Раздают: 56    Качают: 3
Скачать торрент
Скачать торрент
Описание торрента

СообщениеДобавлено: 12 янв 2018 

Подземелье ведьм

Страна: СССР, ЧССР
Выпущено киностудия "Баррандов" (ЧССР), студия имени Горького, Госкино, "Ладья"
Жанр: фантастика, боевик
Год выпуска: 1989
Продолжительность: 01:20:43
Перевод: Не требуется
Режиссер: Юрий Мороз
В ролях: Сергей Жигунов (озвучание - Владимир Антоник), Марина Левтова, Николай Караченцов, Дмитрий Певцов, Игорь Ясулович, Жанна Прохоренко, Владимир Талашко, Сергей Быстрицкий, Анатолий Мамбетов, Леонид Громов, Леонид Филаткин, Виллор Кузнецов, Андрей Леонов, Владислав Ковальков, Наталья Каменская
О Фильме: Корабль дальних космических исследований "Титан" направляется с Земли к планете КС 63/12 "ЭВУР" - "ЭВолюционный УРод". На планете нарушены законы эволюции: одновременно существуют виды животных разных исторических эпох. Полудикие племена кочевников ведут постоянную междоусобную войну. На Эвуре также находится база земной этнографической экспедиции. Ее руководитель Конрад Жмунда пошел на прямые контакты с племенами, что категорически запрещено инструкцией. И тогда с "Титана" на Эвур посылают инспектора по контактам Андрея Брюса, которому также предстоит выяснить, откуда на планете бетонные дороги, над которыми летают птеродактили, и стальные мечи у дикарей каменного века. Но вскоре после его прибытия на базу землян нападает племя, возглавляемое кровожадным Октином Хашем. Четверо землян убиты, а двое взяты в плен. Их хотят принести в жертву каким-то "ведьмам"...

Кодек: х264
Качество: DVDRip-AVC ("Крупный план", полная реставрация)
Видео: MPEG-4 AVC, [email protected], 25 fps, 2350 Кбит/с
Аудио 1: AC3, 6 ch, 448 Кбит/с
Аудио 2: AC3, 1 ch, 224 Кбит/с

x264 [info]: frame I:757 Avg QP:14.30 size: 69377
x264 [info]: frame P:27962 Avg QP:18.01 size: 25439
x264 [info]: frame B:92379 Avg QP:19.97 size: 7138
Общее
Уникальный идентификатор : 229167061655454390634315218836521136969 (0xAC67F87B45103926BDFEFD22ACC2B349)
Полное имя : E:Мои рипыПодземелье ведьм 1989_DVDRip-AVC_KORSAR.mkv
Формат : Matroska
Версия формата : Version 2
Размер файла : 1,71 Гбайт
Продолжительность : 1 ч. 20 м.
Общий поток : 3024 Кбит/сек
Дата кодирования : UTC 2018-01-07 18:11:01
Программа кодирования : mkvmerge v5.8.0 ('No Sleep / Pillow') built on Sep 2 2012 15:37:04
Библиотека кодирования : libebml v1.2.3 + libmatroska v1.3.0
Видео
Идентификатор : 1
Формат : AVC
Формат/Информация : Advanced Video Codec
Профиль формата : [email protected]
Настройки формата : CABAC / 15 Ref Frames
Параметр CABAC формата : Да
Параметр RefFrames формата : 15 кадров
Идентификатор кодека : V_MPEG4/ISO/AVC
Продолжительность : 1 ч. 20 м.
Битрейт : 2350 Кбит/сек
Ширина : 714 пикселей
Высота : 432 пикселя
Соотношение сторон : 16:9
Соотношение сторон в оригинале : 16:9
Режим частоты кадров : Постоянный
Частота кадров : 25,000 кадров/сек
Цветовое пространство : YUV
Субдискретизация насыщенности : 4:2:0
Битовая глубина : 8 бит
Тип развёртки : Прогрессивная
Бит/(Пиксели*Кадры) : 0.305
Размер потока : 1,29 Гбайт (76%)
Библиотека кодирования : x264 core 152 r2851kMod ba24899
Настройки программы : cabac=1 / ref=15 / deblock=1:-2:-1 / analyse=0x3:0x133 / me=umh / subme=11 / psy=1 / fade_compensate=0.00 / psy_rd=1.03:0.10 / mixed_ref=1 / me_range=48 / chroma_me=1 / trellis=2 / 8x8dct=1 / cqm=0 / deadzone=21,11 / fast_pskip=0 / chroma_qp_offset=-3 / threads=12 / lookahead_threads=3 / sliced_threads=0 / nr=0 / decimate=0 / interlaced=0 / bluray_compat=0 / constrained_intra=0 / bframes=10 / b_pyramid=2 / b_adapt=2 / b_bias=0 / direct=3 / weightb=1 / open_gop=0 / weightp=2 / keyint=250 / keyint_min=25 / scenecut=40 / intra_refresh=0 / rc_lookahead=40 / rc=2pass / mbtree=0 / bitrate=2350 / ratetol=1.0 / qcomp=0.60 / qpmin=0 / qpmax=39 / qpstep=4 / cplxblur=20.0 / qblur=0.5 / vbv_maxrate=50000 / vbv_bufsize=62500 / nal_hrd=none / filler=0 / ip_ratio=1.40 / pb_ratio=1.30 / aq=2:0.90
Язык : English
Default : Да
Forced : Нет
Цветовой диапазон : Limited
Основные цвета : BT.601 PAL
Характеристики трансфера : BT.470 System B, BT.470 System G
Коэффициенты матрицы : BT.470 System B, BT.470 System G
Аудио #1
Идентификатор : 2
Формат : AC-3
Формат/Информация : Audio Coding 3
Параметр Endianness формата : Big
Идентификатор кодека : A_AC3
Продолжительность : 1 ч. 20 м.
Вид битрейта : Постоянный
Битрейт : 448 Кбит/сек
Каналы : 6 каналов
Расположение каналов : Front: L C R, Side: L R, LFE
Частота : 48,0 КГц
Частота кадров : 31,250 кадров/сек (1536 SPF)
Битовая глубина : 16 бит
Метод сжатия : С потерями
Задержка видео : 214 мс.
Размер потока : 259 Мбайт (15%)
Default : Да
Forced : Нет
Аудио #2
Идентификатор : 3
Формат : AC-3
Формат/Информация : Audio Coding 3
Параметр Endianness формата : Big
Идентификатор кодека : A_AC3
Продолжительность : 1 ч. 20 м.
Вид битрейта : Постоянный
Битрейт : 224 Кбит/сек
Каналы : 1 канал
Расположение каналов : Front: C
Частота : 48,0 КГц
Частота кадров : 31,250 кадров/сек (1536 SPF)
Битовая глубина : 16 бит
Метод сжатия : С потерями
Задержка видео : 216 мс.
Размер потока : 129 Мбайт (7%)
Default : Нет
Forced : Нет




   Похожие торренты   Торрент   Размер 
В этой теме нет новых непрочитанных сообщений. Подземелье ведьм (1989) DVDRip-AVC от Zarraza

38 | 14

1.51 ГБ

В этой теме нет новых непрочитанных сообщений. Подземелье ведьм (1989) DVDRip | Реставрация

56 | 6

1.46 ГБ

В этой теме нет новых непрочитанных сообщений. Ловушка для ведьм / Witchtrap (1989) DVDRip | A

94 | 14

1.47 ГБ

В этой теме нет новых непрочитанных сообщений. Ловушка для ведьм / Witchtrap (1989) BDRip | A

92 | 21

1.46 ГБ

В этой теме нет новых непрочитанных сообщений. Ловушка для ведьм / Witchtrap (1989) BDRip | A

2 | 0

1.45 ГБ

В этой теме нет новых непрочитанных сообщений. Ловушка для ведьм / Witchtrap (1989) BDRemux 1080р | A

1 | 1

23.51 ГБ

В этой теме нет новых непрочитанных сообщений. Криминальный квартет (1989) WEBRip 720p от KORSAR

17 | 2

3.75 ГБ




Вы не можете начинать темы
Вы не можете отвечать на сообщения
Вы не можете редактировать свои сообщения
Вы не можете удалять свои сообщения
Вы не можете добавлять вложения

Перейти:  
Для Мосгорсуда, Роскомнадзора и рекламодателей: mosgorsud-torrent[собачка]yandex.ru
 Вход
ppkBB3cker v.2 © 2008-2014 @ PPK
[ Time : 0.046s | 17 Queries | GZIP : Off ]

cron