img image001 image001 image001 image001 image001 image001 image001 image001 image001 image001 image001 image001 image001 image001 image001

Planets Sun Sun Sun
Статистика раздачи
Автор: Nickolas3434 | Размер: 1.46 ГБ | Добавлен: 12 янв 2018
Раздают: 50    Качают: 5
Скачать торрент
Скачать торрент
Описание торрента

СообщениеДобавлено: 12 янв 2018 

Информация о фильме
Название: Охотники за караванами
Год выхода: 2010
Жанр: Военный, драма
Режиссер: Сергей Чекалов
В ролях: Алексей Серебряков, Андрей Саминин, Алексей Лонгин, Всеволод Хованский, Карина Андоленко, Евгения Лютая, Владимир Смирнов, Михаил Тарабукин, Иван Шибанов, Никита Емшанов, Игорь Миркурбано
О фильме: Афганистан, 1987 год. Появившиися у моджахедов переносные зенитные комплексы "Стингер" грозят положить конец господству в воздухе советской авиации. Командир разведбата майор Оковалков получает задание добыть образец этого нового оружия. Для этого ему необходимо захватить небольшой караван. Однако караван оказывается огромным, с хорошо вооруженной охраной. Поняв, что операция провалена, Оковалко принимает решение переждать прохождение колонны и вернуться в часть, но его планы нарушает автоматная очередь, случайно выпущенная молодым неопытным солдатом...

Страна: Россия
Студия: 4К по заказу Star Media
Продолжительность: 03:03:43
Перевод: Не требуется (оригинальный, русский)
Файл
Формат: avi
Качество: HDTVRip (HDTV.1080)
Видео: XviD, 656x368, 25fps, 1000kbps
Аудио: MPEG Layer 3, 2ch, 48000Hz, 128kbps

Общее
Полное имя : Ohotniki.Za.Karavanami.2010.O.HDTVRip.1400.CurHaJI.avi
Формат : AVI
Формат/Информация : Audio Video Interleave
Размер файла : 1,46 Гбайт
Продолжительность : 3 ч. 3 м.
Общий поток : 1138 Кбит/сек
Название фильма : Ohotniki.Za.Karavanami.2010.O.HDTVRip.1400.CurHaJI
Программа кодирования : VirtualDubMod 1.5.10.3 | www.virtualdub-fr.org || (build 2550/release)
Библиотека кодирования : VirtualDub build 35491/release
Видео
Идентификатор : 0
Формат : MPEG-4 Visual
Профиль формата : Advanced [email protected]
Параметр BVOP формата : 1
Параметр QPel формата : Нет
Параметр GMC формата : Без точки перехода
Параметр матрицы формата : Выборочная
Идентификатор кодека : XVID
Идентификатор кодека/Подсказка : XviD
Продолжительность : 3 ч. 3 м.
Битрейт : 1000 Кбит/сек
Ширина : 656 пикселей
Высота : 368 пикселей
Соотношение сторон : 16:9
Частота кадров : 25,000 кадров/сек
Цветовое пространство : YUV
Субдискретизация насыщенности : 4:2:0
Битовая глубина : 8 бит
Тип развёртки : Прогрессивная
Метод сжатия : С потерями
Бит/(Пиксели*Кадры) : 0.166
Размер потока : 1,28 Гбайт (88%)
Библиотека кодирования : XviD 73
Аудио
Идентификатор : 1
Формат : MPEG Audio
Версия формата : Version 1
Профиль формата : Layer 3
Идентификатор кодека : 55
Идентификатор кодека/Подсказка : MP3
Продолжительность : 3 ч. 3 м.
Вид битрейта : Постоянный
Битрейт : 128 Кбит/сек
Каналы : 2 канала
Частота : 48,0 КГц
Метод сжатия : С потерями
Размер потока : 168 Мбайт (11%)
Выравнивание : Соединение по промежуткам
Продолжительность промежутка : 40 мс. (1,00 видеокадр)
Время предзагрузки промежутка : 504 мс.
Библиотека кодирования : LAME3.99r
Настройки программы : -m s -V 4 -q 2 -lowpass 17 -b 128


Релиз от:



   Похожие торренты   Торрент   Размер 
В этой теме нет новых непрочитанных сообщений. Охотники за караванами (2010) DVDRip | Лицензия

117 | 22

700.22 МБ

В этой теме нет новых непрочитанных сообщений. Охотники за караванами (2010) DVD9

14 | 2

7.61 ГБ

В этой теме нет новых непрочитанных сообщений. Охотники за караванами (2010) DVD5

14 | 4

4.27 ГБ

В этой теме нет новых непрочитанных сообщений. Охотники за караванами (2010) SATRip от КинозалSAT

25 | 5

2.74 ГБ

В этой теме нет новых непрочитанных сообщений. Охотники за караванами [01-04 из 04] (2010) DVDRip-AVC от fandora

119 | 5

3.15 ГБ

В этой теме нет новых непрочитанных сообщений. Охотники за караванами [01-04 из 04] (2010) WEB-DL 720p от MediaClub

324 | 60

2.58 ГБ

В этой теме нет новых непрочитанных сообщений. Охотники за караванами [01-04 из 04] (2010) WEB-DL 1080p от MegaPeer

142 | 35

5.44 ГБ




Вы не можете начинать темы
Вы не можете отвечать на сообщения
Вы не можете редактировать свои сообщения
Вы не можете удалять свои сообщения
Вы не можете добавлять вложения

Перейти:  
Для Мосгорсуда, Роскомнадзора и рекламодателей: mosgorsud-torrent[собачка]yandex.ru
 Вход
ppkBB3cker v.2 © 2008-2014 @ PPK
[ Time : 0.060s | 18 Queries | GZIP : Off ]

cron