img image001 image001 image001 image001 image001 image001 image001 image001 image001 image001 image001 image001 image001 image001 image001

Planets Sun Sun Sun
Статистика раздачи
Автор: Nickolas3434 | Размер: 1.76 ГБ | Добавлен: 12 янв 2018
Раздают: 43    Качают: 5
Скачать торрент
Скачать торрент
Описание торрента

СообщениеДобавлено: 12 янв 2018 

Информация о фильме
Название: Зоология
Год выпуска: 2016
Жанр: Драма, фантастика, арт-хаус
Режиссер: Иван И. Твердовский
В ролях: Наталья Павленкова, Дмитрий Грошев, Ирина Чипиженко, Маша Токарева, Александр Горчилин, Нина Свиридова, Владимир Сергеев, Валентина Попова, Людмила Шестакова, Юлия Пимкина
Описание:
Наташа живет вдвоем с матерью в небольшом приморском городке. Жизнь ее скучна и размеренна. В зоопарке, где она работает, Наташа уже давно стала объектом для насмешек. Но внезапно с ней происходит странная метаморфоза - ни с того, ни с сего у нее вырастает хвост. Это дикое происшествие заставило Наталью обратиться к разного рода специалистам: гадалкам, ученым, священнослужителям. Правда, окружающие в основном потешаются над произошедшим, а то и убеждены, что в нее вселилась нечистая сила. Ей предстоит пройти через стыд, надежду и отчаяние, чтобы обрести себя. Как поведет себя в такой неординарной ситуации героиня? Смотрите и учитесь...

Страна: Россия, Германия, Франция
Студия: Arizona Films, MovieBrats Films & Animation, New People Film Company
Продолжительность: 01:30:45
Перевод: Не требуется (русский) | Лицензия
Файл
Формат: MKV
Качество: BDRip-AVC
Видео: AVC, 1024х554 (1.85:1), 2327 kbps, 23,976 fps, 0,171 bpp
Аудио: 48 kHz, AC3, 5.1, 448 Kbps | RUS |
Субтитры: Английские
x264 [info]: frame I:626 Avg QP:14.85 size: 81770
x264 [info]: frame P:33699 Avg QP:19.36 size: 25705
x264 [info]: frame B:96240 Avg QP:21.77 size: 6924
--------------------------------------------------
General
Unique ID : 188525577502756898709782921927164598193 (0x8DD4B49B9E43BEB486D8746864B697B1)
Complete name : D:Zoology.2016.BDRip.AVC.ExKinoRay.mkv
Format : Matroska
Format version : Version 2
File size : 1.76 GiB
Duration : 1 h 30 min
Overall bit rate : 2 776 kb/s
Movie name : Zoology 2016 from ExKinoRay
Encoded date : UTC 2018-01-09 20:02:52
Writing application : mkvmerge v5.6.0 ('Kenya Kane') built on May 27 2012 16:44:04
Writing library : libebml v1.2.3 + libmatroska v1.3.0
Video
ID : 1
Format : AVC
Format/Info : Advanced Video Codec
Format profile : [email protected]
Format settings, CABAC : Yes
Format settings, ReFrames : 12 frames
Codec ID : V_MPEG4/ISO/AVC
Duration : 1 h 30 min
Bit rate : 2 327 kb/s
Width : 1 024 pixels
Height : 554 pixels
Display aspect ratio : 1.85:1
Frame rate mode : Constant
Frame rate : 23.976 (24000/1001) FPS
Color space : YUV
Chroma subsampling : 4:2:0
Bit depth : 8 bits
Scan type : Progressive
Bits/(Pixel*Frame) : 0.171
Stream size : 1.44 GiB (82%)
Title : Enigma
Writing library : x264 core 148 r2638 7599210
Encoding settings : cabac=1 / ref=12 / deblock=1:-2:-2 / analyse=0x3:0x133 / me=umh / subme=11 / psy=1 / psy_rd=1.05:0.08 / mixed_ref=1 / me_range=32 / chroma_me=1 / trellis=2 / 8x8dct=1 / cqm=0 / deadzone=21,11 / fast_pskip=1 / chroma_qp_offset=-3 / threads=12 / lookahead_threads=3 / sliced_threads=0 / nr=0 / decimate=0 / interlaced=0 / bluray_compat=0 / constrained_intra=0 / bframes=11 / b_pyramid=2 / b_adapt=2 / b_bias=0 / direct=1 / weightb=1 / open_gop=0 / weightp=2 / keyint=240 / keyint_min=23 / scenecut=40 / intra_refresh=0 / rc_lookahead=40 / rc=2pass / mbtree=1 / bitrate=2327 / ratetol=1.0 / qcomp=0.60 / qpmin=0 / qpmax=51 / qpstep=4 / cplxblur=20.0 / qblur=0.5 / vbv_maxrate=50000 / vbv_bufsize=62500 / nal_hrd=none / filler=0 / ip_ratio=1.40 / aq=1:0.90
Default : Yes
Forced : No
Color range : Limited
Color primaries : BT.709
Transfer characteristics : BT.709
Matrix coefficients : BT.709
Audio
ID : 2
Format : AC-3
Format/Info : Audio Coding 3
Mode extension : CM (complete main)
Format settings, Endianness : Big
Codec ID : A_AC3
Duration : 1 h 30 min
Bit rate mode : Constant
Bit rate : 448 kb/s
Channel(s) : 6 channels
Channel positions : Front: L C R, Side: L R, LFE
Sampling rate : 48.0 kHz
Frame rate : 31.250 FPS (1536 spf)
Compression mode : Lossy
Stream size : 291 MiB (16%)
Title : Лицензия
Language : Russian
Default : Yes
Forced : No
Text
ID : 3
Format : UTF-8
Codec ID : S_TEXT/UTF8
Codec ID/Info : UTF-8 Plain Text
Language : English
Default : No
Forced : No
Menu
00:00:00.000 : ru:Chapter 01
00:07:39.834 : ru:Chapter 02
00:15:56.538 : ru:Chapter 03
00:23:47.843 : ru:Chapter 04
00:31:48.573 : ru:Chapter 05
00:39:57.937 : ru:Chapter 06
00:49:43.230 : ru:Chapter 07
00:54:44.281 : ru:Chapter 08
01:02:59.358 : ru:Chapter 09
01:09:59.695 : ru:Chapter 10
01:20:20.774 : ru:Chapter 11
01:27:08.973 : ru:Chapter 12
01:30:45.606 : ru:Chapter 13


Релиз от:
Автор релиза:



   Похожие торренты   Торрент   Размер 
В этой теме нет новых непрочитанных сообщений. Зоология (2016) BDRip 720p от ExKinoRay | Лицензия

43 | 6

4.53 ГБ

В этой теме нет новых непрочитанных сообщений. Зоология (2016) BDRip 1080p от OlLanDGroup | Лицензия

25 | 3

10.34 ГБ

В этой теме нет новых непрочитанных сообщений. Зоология (2016) HDRip от Generalfilm | КПК | Лицензия

0 | 0

344.06 МБ

В этой теме нет новых непрочитанных сообщений. Зоология (2016) Blu-ray 1080p | GBR Transfer | Лицензия

8 | 2

28.3 ГБ

В этой теме нет новых непрочитанных сообщений. Зоология (2016) BDRemux 1080p от OlLanDGroup | Лицензия

3 | 1

20.08 ГБ

В этой теме нет новых непрочитанных сообщений. Зоология (2016) WEB-DL 720p | iTunes

4 | 0

2.79 ГБ

В этой теме нет новых непрочитанных сообщений. Зоология (2016) WEB-DLRip-AVC | iTunes

2 | 0

746.41 МБ




Вы не можете начинать темы
Вы не можете отвечать на сообщения
Вы не можете редактировать свои сообщения
Вы не можете удалять свои сообщения
Вы не можете добавлять вложения

Перейти:  
Для Мосгорсуда, Роскомнадзора и рекламодателей: mosgorsud-torrent[собачка]yandex.ru
 Вход
ppkBB3cker v.2 © 2008-2014 @ PPK
[ Time : 0.066s | 17 Queries | GZIP : Off ]

cron