img image001 image001 image001 image001 image001 image001 image001 image001 image001 image001 image001 image001 image001 image001 image001

Planets Sun Sun Sun
Статистика раздачи
Автор: Nickolas3434 | Размер: 696.15 МБ | Добавлен: 12 янв 2018
Раздают: 92    Качают: 6
Скачать торрент
Скачать торрент
Описание торрента

СообщениеДобавлено: 12 янв 2018 

Информация о фильме
Оригинальное название: Вторая молодость
Год выхода: 2017
Жанр: Мелодрама
Режиссер: Максим Субботин
В ролях: Алёна Хмельницкая, Евгений Шириков, Дмитрий Ячевский, Прохор Дубравин, Марина Митрофанова, Галина Кашковская, Александр Песков, Анастасия Дубровина, Ольга Богомазова, Илья Сологуб
О фильме: Проработав двадцать лет в галерее, Ирина (Алена Хмельницкая), наконец, решает уволиться, чтобы посвятить себя дому и семье. Однако вскоре выясняется, что ни мужу, ни взрослым дочерям ее заботы не нужны. Ее муж Борис (Дмитрий Ячевский) - владелец строительного бизнеса, с утра до ночи пропадает на стройке, старшая дочь живет с семьей за границей, а младшая Юля (Марина Митрофанова) увлечена романом с женатым мужчиной (Прохор Дубравин). Ира пытается отговорить дочь от этой связи, но та просит мать не лезть в ее жизнь. Чтобы занять себя, Ирина идет учиться в школу живописи. В нее влюбляется молодой и талантливой педагог и художник Максим (Евгений Шириков). Вопреки значительной разнице в возрасте и другим серьезным обстоятельствам у них начинается роман. Ирина корит себя за легкомыслие, ведь все это может разрушить ее семью, но ничего не может поделать… в сорок пять лет у нее начинается вторая молодость.

Страна: Россия
Студия: BUBBLEGUM PRODUCTION, Калейдоскоп Фильм
Продолжительность: 01:39:46
Перевод: Не Требуется
Субтитры: Нет
Файл
Кодек: XviD
Качество: HDTVRip
Видео: 640x352 (1.82:1), 25 fps, XviD build 73 ~837 kbps avg, 0.15 bit/pixel
Звук: 48 kHz, MPEG Layer 3, 2 ch, ~128.00 kbps avg
General
Complete name : Vtoraya.Molodost.2017.HDTVRip.ot.Portablius.avi
Format : AVI
Format/Info : Audio Video Interleave
File size : 696 MiB
Duration : 1 h 39 min
Overall bit rate : 976 kb/s
Writing application : VirtualDubMod 1.5.10.3 | www.virtualdub-fr.org || (build 2550/release)
Writing library : VirtualDubMod build 2550/release
Video
ID : 0
Format : MPEG-4 Visual
Format profile : Advanced [email protected]
Format settings, BVOP : 1
Format settings, QPel : No
Format settings, GMC : No warppoints
Format settings, Matrix : Custom
Codec ID : XVID
Codec ID/Hint : XviD
Duration : 1 h 39 min
Bit rate : 838 kb/s
Width : 640 pixels
Height : 352 pixels
Display aspect ratio : 16:9
Frame rate : 25.000 FPS
Color space : YUV
Chroma subsampling : 4:2:0
Bit depth : 8 bits
Scan type : Progressive
Compression mode : Lossy
Bits/(Pixel*Frame) : 0.149
Stream size : 598 MiB (86%)
Writing library : XviD 73
Audio
ID : 1
Format : MPEG Audio
Format version : Version 1
Format profile : Layer 3
Codec ID : 55
Codec ID/Hint : MP3
Duration : 1 h 39 min
Bit rate mode : Constant
Bit rate : 128 kb/s
Channel(s) : 2 channels
Sampling rate : 48.0 kHz
Compression mode : Lossy
Stream size : 91.3 MiB (13%)
Alignment : Aligned on interleaves
Interleave, duration : 40 ms (1.00 video frame)
Interleave, preload duratio : 504 ms
Writing library : LAME3.99r
Encoding settings : -m s -V 4 -q 2 -lowpass 17 -b 128



   Похожие торренты   Торрент   Размер 
В этой теме нет новых непрочитанных сообщений. Вторая молодость (2017) HDTVRip 720p от MediaClub

260 | 23

2.57 ГБ

В этой теме нет новых непрочитанных сообщений. Вторая молодость (2017) WEB-DLRip от Files-x

483 | 26

1.37 ГБ

В этой теме нет новых непрочитанных сообщений. Вторая молодость (2017) WEB-DLRip-AVC от Files-x

195 | 13

1.37 ГБ

В этой теме нет новых непрочитанных сообщений. Вторая молодость (2017) HDTV 1080i от MediaClub

50 | 6

4.71 ГБ

В этой теме нет новых непрочитанных сообщений. Вторая молодость / Druga mlodosc (1938) TVRip | A

0 | 2

805.89 МБ

В этой теме нет новых непрочитанных сообщений. Ковчег (2017) HDTVRip от Portablius

117 | 14

700.86 МБ

В этой теме нет новых непрочитанных сообщений. Елена Прекрасная (2017) HDTVRip от Portablius

59 | 4

698.31 МБ




Вы не можете начинать темы
Вы не можете отвечать на сообщения
Вы не можете редактировать свои сообщения
Вы не можете удалять свои сообщения
Вы не можете добавлять вложения

Перейти:  
Для Мосгорсуда, Роскомнадзора и рекламодателей: mosgorsud-torrent[собачка]yandex.ru
 Вход
ppkBB3cker v.2 © 2008-2014 @ PPK
[ Time : 0.049s | 19 Queries | GZIP : Off ]

cron