img image001 image001 image001 image001 image001 image001 image001 image001 image001 image001 image001 image001 image001 image001 image001

Planets Sun Sun Sun
Статистика раздачи
Автор: Nickolas3434 | Размер: 15.06 ГБ | Добавлен: 06 янв 2018
Раздают: 1    Качают: 0
Скачать торрент
Скачать торрент
Описание торрента

СообщениеДобавлено: 06 янв 2018 

Год выпуска: 2017
Страна: Великобритания и США
Жанр: Авто-шоу,документальный, ток-шоу, комедия.
Продолжительность:~01:10:00
Перевод:
Перевод #1: Многоголосый закадровый -AlexFilm
Перевод #2: Многоголосый закадровый - Coldfilm
Перевод #3:Многоголосый закадровый - Gears Media
Перевод #4: Многоголосый закадровый - IdeaFilm
Перевод #5: Многоголосый закадровый -Jaskier
Перевод #6: Многоголосый закадровый - Jetvis Studio & RG.paravozik
Перевод #7: Двухголосый закадровый - KinoGolos
Перевод #8: Многоголосый закадровый -NewStudio
Перевод #9: Двухголосый закадровый-SunshineStudio
Субтитры: Русские(полные от Coldfilm ,форсированные от NewStudio ) и Английские
Режиссер:Брайан Клейн, Фил Чурчуорд, Найджел Симпкисс,
Продюсер: Энди Уилман, Алекс Рентон, Грант Уордроп,
Композитор: Пол Леонард-Морган
Художник: Джонатан Пол Грин, Джеймс Роуэлл, Саймон Киммел
Монтаж: Ник Брэдфорд
В ролях: Ричард Хаммонд / Richard Hammond (играет самого себя ), Джереми Кларксон / Jeremy Clarkson (играет самого себя ), Джеймс Мэй / James May (играет самого себя -)
Описание: Автомобильное телешоу, созданное бывшими ведущими Топ гир — Джереми Кларксоном, Ричардом Хаммондом и Джеймсом Мэйем.




Качество: WEB-DLRip
Формат: MKV
Видео кодек:AVC
Аудио кодеk: AC3 ,E-AC3
Видео: AVC, 1920x1080, 23.976 fps, ~11500 kbps avg, ~0.265 bit/pixel
Аудио:
Аудио #1:48 kHz, AC3 Dolby Digital, 3/2 (L,C,R,l,r) + LFE ch, ~384.00 kbps - AlexFilm
Аудио #2:48 kHz, AC3 Dolby Digital , 2/0 (L,R) ch, ~192 kbps - Coldfilm
Аудио #3:48 kHz, AC3 Dolby Digital , 2/0 (L,R) ch, ~384 kbps -Gears Media
Аудио #4:48 kHz, AC3 Dolby Digital, 3/2 (L,C,R,l,r) + LFE ch, ~384.00 kbps - IdeaFilm
Аудио #5:48 kHz, AC3 Dolby Digital, 3/2 (L,C,R,l,r) + LFE ch, ~384.00 kbps -Jaskier
Аудио #6:48 kHz, AC3 Dolby Digital , 2/0 (L,R) ch, ~192 kbps -Jetvis Studio & RG.paravozik
Аудио #7:48 kHz, AC3 Dolby Digital , 2/0 (L,R) ch, ~224 kbps - KinoGolos
Аудио #8:48 kHz, AC3 Dolby Digital, 3/2 (L,C,R,l,r) + LFE ch, ~384.00 kbps -NewStudio
Аудио #9:48 kHz, AC3 Dolby Digital , 2/0 (L,R) ch, ~192 kbps - SunshineStudio
Аудио #10:48 kHz,E-АС3 Dolby Digital Plus, 3/2 (L,C,R,l,r) + LFE ch, ~640.00 kbps -Original
Озвучка:AlexFilm
Перевод: Константин Кривоногов
Монтаж и сведение звука: Алексей Фокин
Роли озвучивали:Андрей Стакионис, Константин ,Погодаев, Дмитрий, Лунёв,Рустам Шайхиев


Озвучка: Jetvis Studio & RG.paravozik
Перевод: doc_ravik
Роли озвучивали: Иван Назаров, Сергей Битюцкий, Михаил Вельмискин, Никита Пугач


Озвучка: Jaskier
Роли озвучивали: Михаил Кшиштовский,Станислав Концевич и другие


Озвучка: NewStudio
Перевод: Григорий Сенин
Роли озвучивали: Александр Новиков и другие

Код:
Общее
Уникальный идентификатор                 : 212669613821596444065700647981164888860 (0x9FFEAD81282BFCCAA099AB4827D1831C)
Полное имя                               : I:GT s021.mkv
Формат                                   : Matroska
Версия формата                           : Version 2
Размер файла                             : 7,28 Гбайт
Продолжительность                        : 1 ч. 10 м.
Режим общего битрейта                    : Переменный
Общий поток                              : 14,9 Мбит/сек
Дата кодирования                         : UTC 2018-01-03 13:57:26
Программа кодирования                    : mkvmerge v7.8.0 ('River Man') 32bit built on Apr  3 2015 12:11:22
Библиотека кодирования                   : libebml v1.3.1 + libmatroska v1.4.2
Видео
Идентификатор                            : 1
Формат                                   : AVC
Формат/Информация                        : Advanced Video Codec
Профиль формата                          : [email protected]
Параметр CABAC формата                   : Да
Параметр ReFrames формата                : 4 кадра
Идентификатор кодека                     : V_MPEG4/ISO/AVC
Продолжительность                        : 1 ч. 10 м.
Вид битрейта                             : Переменный
Битрейт                                  : 11,2 Мбит/сек
Максимальный битрейт                     : 15,0 Мбит/сек
Ширина                                   : 1920 пикселей
Высота                                   : 1080 пикселей
Соотношение сторон                       : 16:9
Режим частоты кадров                     : Постоянный
Частота кадров                           : 25,000 кадров/сек
Цветовое пространство                    : YUV
Субдискретизация насыщенности            : 4:2:0
Битовая глубина                          : 8 бит
Тип развёртки                            : Прогрессивная
Бит/(Пиксели*Кадры)                      : 0.216
Размер потока                            : 5,49 Гбайт (75%)
Заголовок                                : S.c.a.r.a.b.e.y
Default                                  : Да
Forced                                   : Нет
Цветовой диапазон                        : Limited
Основные цвета                           : BT.709
Характеристики трансфера                 : BT.709
Коэффициенты матрицы                     : BT.709
Аудио #1
Идентификатор                            : 2
Формат                                   : AC-3
Формат/Информация                        : Audio Coding 3
Расширение режима                        : CM (complete main)
Параметр Endianness формата              : Big
Идентификатор кодека                     : A_AC3
Продолжительность                        : 1 ч. 10 м.
Вид битрейта                             : Постоянный
Битрейт                                  : 384 Кбит/сек
Каналы                                   : 6 каналов
Расположение каналов                     : Front: L C R, Side: L R, LFE
Частота                                  : 48,0 КГц
Частота кадров                           : 31,250 кадров/сек (1536 spf)
Битовая глубина                          : 16 бит
Метод сжатия                             : С потерями
Размер потока                            : 193 Мбайт (3%)
Заголовок                                : AlexFilm
Язык                                     : Russian
Default                                  : Да
Forced                                   : Нет
Аудио #2
Идентификатор                            : 3
Формат                                   : AC-3
Формат/Информация                        : Audio Coding 3
Расширение режима                        : CM (complete main)
Параметр Endianness формата              : Big
Идентификатор кодека                     : A_AC3
Продолжительность                        : 1 ч. 10 м.
Вид битрейта                             : Постоянный
Битрейт                                  : 192 Кбит/сек
Каналы                                   : 2 канала
Расположение каналов                     : Front: L R
Частота                                  : 48,0 КГц
Частота кадров                           : 31,250 кадров/сек (1536 spf)
Битовая глубина                          : 16 бит
Метод сжатия                             : С потерями
Размер потока                            : 96,3 Мбайт (1%)
Заголовок                                : ColdFilm
Язык                                     : Russian
Default                                  : Нет
Forced                                   : Нет
Аудио #3
Идентификатор                            : 4
Формат                                   : AC-3
Формат/Информация                        : Audio Coding 3
Расширение режима                        : CM (complete main)
Параметр Endianness формата              : Big
Идентификатор кодека                     : A_AC3
Продолжительность                        : 1 ч. 10 м.
Вид битрейта                             : Постоянный
Битрейт                                  : 384 Кбит/сек
Каналы                                   : 2 канала
Расположение каналов                     : Front: L R
Частота                                  : 48,0 КГц
Частота кадров                           : 31,250 кадров/сек (1536 spf)
Битовая глубина                          : 16 бит
Метод сжатия                             : С потерями
Размер потока                            : 193 Мбайт (3%)
Заголовок                                : Gears media
Язык                                     : Russian
Default                                  : Нет
Forced                                   : Нет
Аудио #4
Идентификатор                            : 5
Формат                                   : AC-3
Формат/Информация                        : Audio Coding 3
Расширение режима                        : CM (complete main)
Параметр Endianness формата              : Big
Идентификатор кодека                     : A_AC3
Продолжительность                        : 1 ч. 10 м.
Вид битрейта                             : Постоянный
Битрейт                                  : 384 Кбит/сек
Каналы                                   : 6 каналов
Расположение каналов                     : Front: L C R, Side: L R, LFE
Частота                                  : 48,0 КГц
Частота кадров                           : 31,250 кадров/сек (1536 spf)
Битовая глубина                          : 16 бит
Метод сжатия                             : С потерями
Размер потока                            : 193 Мбайт (3%)
Заголовок                                : IdeaFilm
Язык                                     : Russian
Default                                  : Нет
Forced                                   : Нет
Аудио #5
Идентификатор                            : 6
Формат                                   : AC-3
Формат/Информация                        : Audio Coding 3
Расширение режима                        : CM (complete main)
Параметр Endianness формата              : Big
Идентификатор кодека                     : A_AC3
Продолжительность                        : 1 ч. 10 м.
Вид битрейта                             : Постоянный
Битрейт                                  : 384 Кбит/сек
Каналы                                   : 6 каналов
Расположение каналов                     : Front: L C R, Side: L R, LFE
Частота                                  : 48,0 КГц
Частота кадров                           : 31,250 кадров/сек (1536 spf)
Битовая глубина                          : 16 бит
Метод сжатия                             : С потерями
Размер потока                            : 193 Мбайт (3%)
Заголовок                                : Jaskier
Язык                                     : Russian
Default                                  : Нет
Forced                                   : Нет
Аудио #6
Идентификатор                            : 7
Формат                                   : AC-3
Формат/Информация                        : Audio Coding 3
Расширение режима                        : CM (complete main)
Параметр Endianness формата              : Big
Идентификатор кодека                     : A_AC3
Продолжительность                        : 1 ч. 10 м.
Вид битрейта                             : Постоянный
Битрейт                                  : 192 Кбит/сек
Каналы                                   : 2 канала
Расположение каналов                     : Front: L R
Частота                                  : 48,0 КГц
Частота кадров                           : 31,250 кадров/сек (1536 spf)
Битовая глубина                          : 16 бит
Метод сжатия                             : С потерями
Размер потока                            : 96,3 Мбайт (1%)
Заголовок                                : Jetvis
Язык                                     : Russian
Default                                  : Нет
Forced                                   : Нет
Аудио #7
Идентификатор                            : 8
Формат                                   : AC-3
Формат/Информация                        : Audio Coding 3
Расширение режима                        : CM (complete main)
Параметр Endianness формата              : Big
Идентификатор кодека                     : A_AC3
Продолжительность                        : 1 ч. 10 м.
Вид битрейта                             : Постоянный
Битрейт                                  : 224 Кбит/сек
Каналы                                   : 2 канала
Расположение каналов                     : Front: L R
Частота                                  : 48,0 КГц
Частота кадров                           : 31,250 кадров/сек (1536 spf)
Битовая глубина                          : 16 бит
Метод сжатия                             : С потерями
Размер потока                            : 112 Мбайт (2%)
Заголовок                                : KinoGolos
Язык                                     : Russian
Default                                  : Нет
Forced                                   : Нет
Аудио #8
Идентификатор                            : 9
Формат                                   : AC-3
Формат/Информация                        : Audio Coding 3
Расширение режима                        : CM (complete main)
Параметр Endianness формата              : Big
Идентификатор кодека                     : A_AC3
Продолжительность                        : 1 ч. 10 м.
Вид битрейта                             : Постоянный
Битрейт                                  : 384 Кбит/сек
Каналы                                   : 6 каналов
Расположение каналов                     : Front: L C R, Side: L R, LFE
Частота                                  : 48,0 КГц
Частота кадров                           : 31,250 кадров/сек (1536 spf)
Битовая глубина                          : 16 бит
Метод сжатия                             : С потерями
Размер потока                            : 193 Мбайт (3%)
Заголовок                                : NewStudio
Язык                                     : Russian
Default                                  : Нет
Forced                                   : Нет
Аудио #9
Идентификатор                            : 10
Формат                                   : AC-3
Формат/Информация                        : Audio Coding 3
Расширение режима                        : CM (complete main)
Параметр Endianness формата              : Big
Идентификатор кодека                     : A_AC3
Продолжительность                        : 1 ч. 10 м.
Вид битрейта                             : Постоянный
Битрейт                                  : 192 Кбит/сек
Каналы                                   : 2 канала
Расположение каналов                     : Front: L R
Частота                                  : 48,0 КГц
Частота кадров                           : 31,250 кадров/сек (1536 spf)
Битовая глубина                          : 16 бит
Метод сжатия                             : С потерями
Размер потока                            : 96,3 Мбайт (1%)
Заголовок                                : Sunshine
Язык                                     : Russian
Default                                  : Нет
Forced                                   : Нет
Аудио #10
Идентификатор                            : 11
Формат                                   : E-AC-3
Формат/Информация                        : Enhanced Audio Coding 3
Параметр Endianness формата              : Big
Идентификатор кодека                     : A_EAC3
Продолжительность                        : 1 ч. 10 м.
Вид битрейта                             : Постоянный
Битрейт                                  : 640 Кбит/сек
Каналы                                   : 6 каналов
Расположение каналов                     : Front: L C R, Side: L R, LFE
Частота                                  : 48,0 КГц
Частота кадров                           : 187,500 кадров/сек (256 spf)
Метод сжатия                             : С потерями
Размер потока                            : 321 Мбайт (4%)
Язык                                     : English
Default                                  : Нет
Forced                                   : Нет
Текст #1
Идентификатор                            : 12
Формат                                   : UTF-8
Идентификатор кодека                     : S_TEXT/UTF8
Идентификатор кодека/Информация          : UTF-8 Plain Text
Заголовок                                : Eng
Язык                                     : English
Default                                  : Нет
Forced                                   : Нет
Текст #2
Идентификатор                            : 13
Формат                                   : ASS
Идентификатор кодека                     : S_TEXT/ASS
Идентификатор кодека/Информация          : Advanced Sub Station Alpha
Метод сжатия                             : Без потерь
Заголовок                                : NewStudio force
Язык                                     : Russian
Default                                  : Нет
Forced                                   : Нет
Текст #3
Идентификатор                            : 14
Формат                                   : UTF-8
Идентификатор кодека                     : S_TEXT/UTF8
Идентификатор кодека/Информация          : UTF-8 Plain Text
Заголовок                                : Rus
Язык                                     : Russian
Default                                  : Да
Forced                                   : Нет





   Похожие торренты   Торрент   Размер 
В этой теме нет новых непрочитанных сообщений. Гранд тур / The Grand Tour [S02x01-02] (2017) WEB-DLRip 1080p | P, L

0 | 0

27.48 ГБ

В этой теме нет новых непрочитанных сообщений. Гранд тур / The Grand Tour [01x01-11 из 12] (2016) WEB-DLRip 1080p | P, L

12 | 114

81.74 ГБ

В этой теме нет новых непрочитанных сообщений. Гранд тур / The Grand Tour [01x01-03 из 12] (2016) WEB-DLRip 1080p | P, L

26 | 47

22.55 ГБ

В этой теме нет новых непрочитанных сообщений. Гранд тур / The Grand Tour [01x01-04 из 12] (2016) WEB-DLRip 1080p | P, L

37 | 50

30.73 ГБ

В этой теме нет новых непрочитанных сообщений. Гранд тур / The Grand Tour [01x01-11 из 12] (2016) WEB-DLRip 1080p | P, L

3 | 18

89.69 ГБ

В этой теме нет новых непрочитанных сообщений. Гранд тур / The Grand Tour [01x01-05 из 12] (2016) WEB-DLRip 1080p | P, L

54 | 99

38.24 ГБ

В этой теме нет новых непрочитанных сообщений. Гранд тур / The Grand Tour [01x01 из 12] (2016) WEB-DLRip 1080p | P,L

12 | 17

8.3 ГБ




Вы не можете начинать темы
Вы не можете отвечать на сообщения
Вы не можете редактировать свои сообщения
Вы не можете удалять свои сообщения
Вы не можете добавлять вложения

Перейти:  
Для Мосгорсуда, Роскомнадзора и рекламодателей: mosgorsud-torrent[собачка]yandex.ru
 Вход
ppkBB3cker v.2 © 2008-2014 @ PPK
[ Time : 0.061s | 18 Queries | GZIP : Off ]

cron