img image001 image001 image001 image001 image001 image001 image001 image001 image001 image001 image001 image001 image001 image001 image001

Planets Sun Sun Sun
Статистика раздачи
Автор: Nickolas3434 | Размер: 1.81 ГБ | Добавлен: 08 янв 2018
Раздают: 17    Качают: 1
Скачать торрент
Скачать торрент
Описание торрента

СообщениеДобавлено: 08 янв 2018 

Информация о фильме
Название: Страсти по государству
Год выхода: 2018
Жанр: Документальный
Режиссер: Владимир Баранов
В ролях: Александр Проханов
О фильме:
По российскому государству наносятся удары: взрывы в петербургском метро, коррупционные скандалы, демонизация страны и ее руководителей. О тяжелых испытаниях, выпавших на долю великой страны - в документальном фильме Александра Проханова "Страсти по государству".
Страна: Россия
Студия: ВГТРК, Россия 24
Продолжительность: 03:20:06
Перевод: Не требуется
Файл
Кодек: h.264
Качество: WEBRip
Видео: AVC MPEG-4, 960x540 (16:9), ~1200 Kbps, 25 fps
Звук: AAC, 2 ch, 94 Kbps
General
Unique ID : 102030009981683244186534537845506348221 (0x4CC243E08AB0461E8C87FEA0429094BD)
Complete name : D:FilmСтрасти по государству1 серия.mkv
Format : Matroska
Format version : Version 4 / Version 2
File size : 413 MiB
Duration : 44 min 24 s
Overall bit rate mode : Variable
Overall bit rate : 1 299 kb/s
Encoded date : UTC 2018-01-05 13:39:58
Writing application : mkvmerge v19.0.0 ('Brave Captain') 64-bit
Writing library : libebml v1.3.5 + libmatroska v1.4.8
Cover : Yes
Attachments : cover.png
Video
ID : 1
Format : AVC
Format/Info : Advanced Video Codec
Format profile : [email protected]
Format settings : CABAC / 2 Ref Frames
Format settings, CABAC : Yes
Format settings, RefFrames : 2 frames
Codec ID : V_MPEG4/ISO/AVC
Duration : 44 min 24 s
Bit rate mode : Variable
Bit rate : 1 201 kb/s
Maximum bit rate : 2 000 kb/s
Width : 960 pixels
Height : 540 pixels
Display aspect ratio : 16:9
Frame rate mode : Constant
Frame rate : 25.000 FPS
Color space : YUV
Chroma subsampling : 4:2:0
Bit depth : 8 bits
Scan type : Progressive
Bits/(Pixel*Frame) : 0.093
Stream size : 381 MiB (92%)
Language : Russian
Default : Yes
Forced : No
Audio
ID : 2
Format : AAC
Format/Info : Advanced Audio Codec
Format profile : LC
Codec ID : A_AAC-2
Duration : 44 min 24 s
Bit rate : 93.5 kb/s
Channel(s) : 2 channels
Channel positions : Front: L R
Sampling rate : 48.0 kHz
Frame rate : 46.875 FPS (1024 SPF)
Compression mode : Lossy
Delay relative to video : -21 ms
Stream size : 29.7 MiB (7%)
Language : Russian
Default : Yes
Forced : No




   Похожие торренты   Торрент   Размер 
В этой теме нет новых непрочитанных сообщений. Всероссийский Общественный Форум: Универсальная Электронная Карта – угроза семье и государству (2011) WEBRip

0 | 2

571.78 МБ

В этой теме нет новых непрочитанных сообщений. Необыкновенный Огонёк - 2018. Старый Новый год (2018) WEBRip 720p от Files-х

10 | 2

1.67 ГБ

В этой теме нет новых непрочитанных сообщений. Необыкновенный Огонёк - 2018. Старый Новый год (2018) WEBRip от Files-х

41 | 1

1.23 ГБ

В этой теме нет новых непрочитанных сообщений. С Новым 2018 годом! (2018) WEBRip 1080p от Rutor

16 | 0

111.45 МБ

В этой теме нет новых непрочитанных сообщений. Преступления страсти (2017) WEBRip от Files-х

0 | 0

502.47 МБ

В этой теме нет новых непрочитанных сообщений. Открытая студия. Страсти по Америке [Пятый канал] [Эфир от 04.07] (2012) WEBRip

0 | 1

359.67 МБ

В этой теме нет новых непрочитанных сообщений. Соль [01] (2018) WEBRip от Files-x

17 | 0

1.92 ГБ




Вы не можете начинать темы
Вы не можете отвечать на сообщения
Вы не можете редактировать свои сообщения
Вы не можете удалять свои сообщения
Вы не можете добавлять вложения

Перейти:  
Для Мосгорсуда, Роскомнадзора и рекламодателей: mosgorsud-torrent[собачка]yandex.ru
 Вход
ppkBB3cker v.2 © 2008-2014 @ PPK
[ Time : 0.049s | 17 Queries | GZIP : Off ]

cron