img image001 image001 image001 image001 image001 image001 image001 image001 image001 image001 image001 image001 image001 image001 image001

Planets Sun Sun Sun
Статистика раздачи
Автор: PriZraK | Размер: 1.45 ГБ | Добавлен: 25 дек 2016
Раздают: 3    Качают: 1
Скачать торрент
Скачать торрент
Описание торрента

СообщениеДобавлено: 25 дек 2016 


Информация о фильме
Название: Снеговик
Оригинальное название: The Snowman
Год выхода: 1982
Жанр: мультфильм, короткометражка, фэнтези, приключения, семейный
Режиссер: Дайян Джексон, Джимми Т. Мураками
В ролях: Дэвид Боуи, Рэймонд Бриггс
О фильме:
Мультфильм рассказывает о маленьком мальчике и волшебном снеговике, которого он сделал накануне Рождества, и об их чудесных приключениях в Рождественскую Ночь.

Страна: Великобритания
Студия: Snowman Enterprises, Channel 4 Television Corporation, TVC London
Продолжительность: 00:25:38
Перевод: Не требуется
Файл
Кодек: x264
Качество: BDRip-AVC (The Snowman 1982 1080i GBR BluRay AVC LPCM 2.0)
Видео: MPEG-4 AVC, 7646 Кбит/с, 1024x576, 25 кадр/с
Звук: AC3, 2 ch, 448 Кбит/с
Общее
Уникальный идентификатор : 177299726489633620059442423450055485465 (0x8562AF6BBEAB67AD95B5756125682819)
Полное имя : The Snowman.1982.BDRip-AVC.mkv
Формат : Matroska
Версия формата : Version 4 / Version 2
Размер файла : 1,45 Гбайт
Продолжительность : 25 м. 38 с.
Общий поток : 8096 Кбит/сек
Название фильма : The Snowman by Koenig
Дата кодирования : UTC 2016-12-15 10:23:13
Программа кодирования : mkvmerge v9.2.0 ('Photograph') 32bit
Библиотека кодирования : libebml v1.3.3 + libmatroska v1.4.4
Обложка : Yes
Attachments : cover.jpg
Видео
Идентификатор : 1
Формат : AVC
Формат/Информация : Advanced Video Codec
Профиль формата : [email protected]
Параметр CABAC формата : Да
Параметр ReFrames формата : 10 кадров
Идентификатор кодека : V_MPEG4/ISO/AVC
Продолжительность : 25 м. 38 с.
Битрейт : 7646 Кбит/сек
Ширина : 1024 пикселя
Высота : 576 пикселей
Соотношение сторон : 16:9
Режим частоты кадров : Постоянный
Частота кадров : 25,000 кадров/сек
Цветовое пространство : YUV
Субдискретизация насыщенности : 4:2:0
Битовая глубина : 8 бит
Тип развёртки : Прогрессивная
Бит/(Пиксели*Кадры) : 0.519
Размер потока : 1,37 Гбайт (94%)
Заголовок : The Snowman
Библиотека кодирования : x264 core 148 r2692 64f4e24
Настройки программы : cabac=1 / ref=10 / deblock=1:-1:-1 / analyse=0x3:0x133 / me=umh / subme=11 / psy=1 / psy_rd=1.00:0.10 / mixed_ref=1 / me_range=32 / chroma_me=1 / trellis=2 / 8x8dct=1 / cqm=0 / deadzone=21,11 / fast_pskip=1 / chroma_qp_offset=-3 / threads=3 / lookahead_threads=1 / sliced_threads=0 / nr=0 / decimate=1 / interlaced=0 / bluray_compat=0 / constrained_intra=0 / bframes=11 / b_pyramid=2 / b_adapt=2 / b_bias=0 / direct=3 / weightb=1 / open_gop=0 / weightp=2 / keyint=250 / keyint_min=25 / scenecut=40 / intra_refresh=0 / rc_lookahead=50 / rc=2pass / mbtree=0 / bitrate=7646 / ratetol=1.0 / qcomp=0.60 / qpmin=0 / qpmax=51 / qpstep=4 / cplxblur=20.0 / qblur=0.5 / vbv_maxrate=50000 / vbv_bufsize=62500 / nal_hrd=none / filler=0 / ip_ratio=1.40 / pb_ratio=1.30 / aq=1:1.00
Default : Да
Forced : Нет
Аудио
Идентификатор : 2
Формат : AC-3
Формат/Информация : Audio Coding 3
Расширение режима : CM (complete main)
Параметр Endianness формата : Big
Идентификатор кодека : A_AC3
Продолжительность : 25 м. 38 с.
Вид битрейта : Постоянный
Битрейт : 448 Кбит/сек
Каналы : 2 канала
Расположение каналов : Front: L R
Частота : 48,0 КГц
Частота кадров : 31,250 кадров/сек (1536 spf)
Битовая глубина : 16 бит
Метод сжатия : С потерями
Размер потока : 82,1 Мбайт (6%)
Язык : English
Default : Да
Forced : Нет



   Похожие торренты   Торрент   Размер 
В этой теме нет новых непрочитанных сообщений. Снеговик / The Snowman (1982) BDRip 720p

28 | 3

2.22 ГБ

В этой теме нет новых непрочитанных сообщений. Снеговик / The Snowman (1982) BDRip от Spirit Summer

8 | 0

431.14 МБ

В этой теме нет новых непрочитанных сообщений. Снеговик / The Snowman (1982) DVDRip

16 | 2

375.01 МБ

В этой теме нет новых непрочитанных сообщений. Снеговик / The Snowman (1982) BDRemux 1080p

2 | 0

5.45 ГБ

В этой теме нет новых непрочитанных сообщений. Снеговик / The Snowman (2017) BDRip-AVC от HELLYWOOD | iTunes

62 | 8

1.41 ГБ

В этой теме нет новых непрочитанных сообщений. Снеговик / The Snowman (2017) BDRip 1080p | iTunes

0 | 0

9.07 ГБ

В этой теме нет новых непрочитанных сообщений. Снеговик / The Snowman (2017) BDRip-AVC от HELLYWOOD | iTunes

74 | 9

2.13 ГБ




Вы не можете начинать темы
Вы не можете отвечать на сообщения
Вы не можете редактировать свои сообщения
Вы не можете удалять свои сообщения
Вы не можете добавлять вложения

Перейти:  
Для Мосгорсуда, Роскомнадзора и рекламодателей: mosgorsud-torrent[собачка]yandex.ru
 Вход
ppkBB3cker v.2 © 2008-2014 @ PPK
[ Time : 0.053s | 17 Queries | GZIP : Off ]

cron