img image001 image001 image001 image001 image001 image001 image001 image001 image001 image001 image001 image001 image001 image001 image001

Planets Sun Sun Sun
Статистика раздачи
Автор: Nickolas3434 | Размер: 7.27 ГБ | Добавлен: 08 ноя 2017
Раздают: 17    Качают: 1
Скачать торрент
Скачать торрент
Описание торрента

СообщениеДобавлено: 08 ноя 2017 

Информация о фильме
Название: Тачки
Оригинальное название: Cars
Год выхода: 2006
Жанр: Мультфильм, комедия, приключения, семейный, спорт
Режиссер: Джон Лассетер, Джо Рэнфт
В ролях: Оуэн Уилсон, Пол Ньюман, Бонни Хант, Ларри-кабельщик, Чич Марин, Тони Шэлуб, Гуидо Куарони, Дженифер Льюис, Пол Дули, Майкл Уоллис
О фильме:
Неукротимый в своем желании всегда и во всем побеждать гоночный автомобиль «Молния» Маккуин вдруг обнаруживает, что сбился с пути и застрял в маленьком захолустном городке Радиатор-Спрингс, что находится где-то на трассе 66 в Калифорнии.
Участвуя в гонках на Кубок Поршня, где ему противостояли два очень опытных соперника, Маккуин совершенно не ожидал, что отныне ему придется общаться с персонажами совсем иного рода. Это, например, Салли — шикарный Порше 2002-го года выпуска, Док Хадсон — легковушка модели «Хадсон Хорнет», 1951-го года выпуска или Метр — ржавый грузовичок-эвакуатор. И все они помогают Маккуину понять, что в мире существуют некоторые более важные вещи, чем слава, призы и спонсоры…

Страна: США
Продолжительность: 01:57:05
Перевод: Дублированный, русский (Лицензия) + Профессиональный многоголосый (Гланц и Ко) + Авторский одноголосый (В.Королёв) + Авторский одноголосый (А.Гаврилов) + Дублированный, украинский (Лицензия)
Файл
Кодек: AVC
Качество: WEB-DL 1080p
Видео: 1920x1080, 5120 Кбит/сек, 23.976 fps
Звук:
Аудио #1: Русский (AC3, 48 KHz, 6 ch, 640 kbps) | Дублированный (Лицензия)
Аудио #2: Русский (AC3, 48 KHz, 6 ch, 640 kbps) | Профессиональный многоголосый (Гланц и Ко)
Аудио #3: Русский (AC3, 48 KHz, 6 ch, 384 kbps) | Авторский одноголосый (В.Королёв)
Аудио #4: Русский (AC3, 48 KHz, 2 ch, 192 kbps) | Авторский одноголосый (А.Гаврилов)
Аудио #5: Украинский (AC3, 48 KHz, 6 ch, 640 kbps) | Дублированный (Лицензия)
Аудио #6: Английский (DTS, 48 KHz, 6 ch, 1510 kbps) | Original
Субтитры: Русские (Forced, Full), Украинские (Forced,Full), Английские
Сравнение BD 1080p VS Open Matte 1080p
Open Matte - версия мультфильма, имеющая обычно большее наполнение по вертикали по сравнению с 2,35:1
Полное имя : Cars.2006.WEB-DL.1080p.Open Matte.mkv
Формат : Matroska
Версия формата : Version 4 / Version 2
Размер файла : 7,27 Гбайт
Продолжительность : 1 ч. 57 м.
Общий поток : 8889 Кбит/сек
Дата кодирования : UTC 2017-03-02 14:40:59
Программа кодирования : mkvmerge v9.9.0 ('Pick Up') 64bit
Библиотека кодирования : libebml v1.3.4 + libmatroska v1.4.5
Видео
Идентификатор : 1
Формат : AVC
Формат/Информация : Advanced Video Codec
Профиль формата : [email protected]
Настройки формата : CABAC / 4 Ref Frames
Параметр CABAC формата : Да
Параметр RefFrames формата : 4 кадра
Идентификатор кодека : V_MPEG4/ISO/AVC
Продолжительность : 1 ч. 57 м.
Битрейт : 5120 Кбит/сек
Ширина : 1920 пикселей
Высота : 1080 пикселей
Соотношение сторон : 16:9
Режим частоты кадров : Постоянный
Частота кадров : 23,976 (24000/1001) кадра/сек
Цветовое пространство : YUV
Субдискретизация насыщенности : 4:2:0
Битовая глубина : 8 бит
Тип развёртки : Прогрессивная
Бит/(Пиксели*Кадры) : 0.103
Размер потока : 4,01 Гбайт (55%)
Библиотека кодирования : x264 core 142
Настройки программы : cabac=1 / ref=3 / deblock=1:0:0 / analyse=0x3:0x113 / me=hex / subme=7 / psy=1 / psy_rd=1.00:0.00 / mixed_ref=1 / me_range=16 / chroma_me=1 / trellis=1 / 8x8dct=1 / cqm=0 / deadzone=21,11 / fast_pskip=1 / chroma_qp_offset=-2 / threads=4 / lookahead_threads=1 / sliced_threads=0 / nr=0 / decimate=1 / interlaced=0 / bluray_compat=0 / constrained_intra=0 / bframes=6 / b_pyramid=2 / b_adapt=1 / b_bias=0 / direct=1 / weightb=1 / open_gop=0 / weightp=2 / keyint=200 / keyint_min=20 / scenecut=0 / intra_refresh=0 / rc_lookahead=40 / rc=2pass / mbtree=1 / bitrate=5120 / ratetol=1.0 / qcomp=0.60 / qpmin=0 / qpmax=69 / qpstep=4 / cplxblur=20.0 / qblur=0.5 / vbv_maxrate=7680 / vbv_bufsize=20480 / nal_hrd=none / filler=0 / ip_ratio=1.40 / aq=1:1.00
Язык : English
Default : Да
Forced : Нет
Аудио #1
Идентификатор : 2
Формат : AC-3
Формат/Информация : Audio Coding 3
Параметр Endianness формата : Big
Идентификатор кодека : A_AC3
Продолжительность : 1 ч. 56 м.
Вид битрейта : Постоянный
Битрейт : 640 Кбит/сек
Каналы : 6 каналов
Расположение каналов : Front: L C R, Side: L R, LFE
Частота : 48,0 КГц
Частота кадров : 31,250 кадров/сек (1536 SPF)
Битовая глубина : 16 бит
Метод сжатия : С потерями
Размер потока : 534 Мбайт (7%)
Заголовок : Дубляж
Язык : Russian
ServiceKind : Complete Main
Default : Да
Forced : Нет
Аудио #2
Идентификатор : 3
Формат : AC-3
Формат/Информация : Audio Coding 3
Параметр Endianness формата : Big
Идентификатор кодека : A_AC3
Продолжительность : 1 ч. 56 м.
Вид битрейта : Постоянный
Битрейт : 640 Кбит/сек
Каналы : 6 каналов
Расположение каналов : Front: L C R, Side: L R, LFE
Частота : 48,0 КГц
Частота кадров : 31,250 кадров/сек (1536 SPF)
Битовая глубина : 16 бит
Метод сжатия : С потерями
Размер потока : 534 Мбайт (7%)
Заголовок : Гланц
Язык : Russian
ServiceKind : Complete Main
Default : Нет
Forced : Нет
Аудио #3
Идентификатор : 4
Формат : AC-3
Формат/Информация : Audio Coding 3
Параметр Endianness формата : Big
Идентификатор кодека : A_AC3
Продолжительность : 1 ч. 56 м.
Вид битрейта : Постоянный
Битрейт : 384 Кбит/сек
Каналы : 6 каналов
Расположение каналов : Front: L C R, Side: L R, LFE
Частота : 48,0 КГц
Частота кадров : 31,250 кадров/сек (1536 SPF)
Битовая глубина : 16 бит
Метод сжатия : С потерями
Размер потока : 320 Мбайт (4%)
Заголовок : В.Королёв
Язык : Russian
ServiceKind : Complete Main
Default : Нет
Forced : Нет
Аудио #4
Идентификатор : 5
Формат : AC-3
Формат/Информация : Audio Coding 3
Параметр Endianness формата : Big
Идентификатор кодека : A_AC3
Продолжительность : 1 ч. 56 м.
Вид битрейта : Постоянный
Битрейт : 192 Кбит/сек
Каналы : 2 канала
Расположение каналов : Front: L R
Частота : 48,0 КГц
Частота кадров : 31,250 кадров/сек (1536 SPF)
Битовая глубина : 16 бит
Метод сжатия : С потерями
Размер потока : 160 Мбайт (2%)
Заголовок : А.Гаврилов
Язык : Russian
ServiceKind : Complete Main
Default : Нет
Forced : Нет
Аудио #5
Идентификатор : 6
Формат : AC-3
Формат/Информация : Audio Coding 3
Параметр Endianness формата : Big
Идентификатор кодека : A_AC3
Продолжительность : 1 ч. 56 м.
Вид битрейта : Постоянный
Битрейт : 640 Кбит/сек
Каналы : 6 каналов
Расположение каналов : Front: L C R, Side: L R, LFE
Частота : 48,0 КГц
Частота кадров : 31,250 кадров/сек (1536 SPF)
Битовая глубина : 16 бит
Метод сжатия : С потерями
Размер потока : 534 Мбайт (7%)
Заголовок : Дубляж
Язык : Ukrainian
ServiceKind : Complete Main
Default : Нет
Forced : Нет
Аудио #6
Идентификатор : 7
Формат : DTS
Формат/Информация : Digital Theater Systems
Режим : 16
Параметр Endianness формата : Big
Идентификатор кодека : A_DTS
Продолжительность : 1 ч. 56 м.
Вид битрейта : Постоянный
Битрейт : 1510 Кбит/сек
Каналы : 6 каналов
Расположение каналов : Front: L C R, Side: L R, LFE
Частота : 48,0 КГц
Частота кадров : 93,750 кадра/сек (512 SPF)
Битовая глубина : 24 бит
Метод сжатия : С потерями
Размер потока : 1,23 Гбайт (17%)
Default : Нет
Forced : Нет
Текст #1
Идентификатор : 8
Формат : UTF-8
Идентификатор кодека : S_TEXT/UTF8
Идентификатор кодека/Информация : UTF-8 Plain Text
Продолжительность : 1 ч. 51 м.
Битрейт : 1 бит/сек
ElementCount : 35
Размер потока : 1,58 Кбайт (0%)
Язык : Russian
Default : Да
Forced : Нет
Текст #2
Идентификатор : 9
Формат : UTF-8
Идентификатор кодека : S_TEXT/UTF8
Идентификатор кодека/Информация : UTF-8 Plain Text
Продолжительность : 1 ч. 55 м.
Битрейт : 110 бит/сек
ElementCount : 1479
Размер потока : 93,4 Кбайт (0%)
Язык : Russian
Default : Нет
Forced : Нет
Текст #3
Идентификатор : 10
Формат : UTF-8
Идентификатор кодека : S_TEXT/UTF8
Идентификатор кодека/Информация : UTF-8 Plain Text
Продолжительность : 1 ч. 51 м.
Битрейт : 5 бит/сек
ElementCount : 148
Размер потока : 4,64 Кбайт (0%)
Язык : Ukrainian
Default : Нет
Forced : Нет
Текст #4
Идентификатор : 11
Формат : UTF-8
Идентификатор кодека : S_TEXT/UTF8
Идентификатор кодека/Информация : UTF-8 Plain Text
Продолжительность : 1 ч. 55 м.
Битрейт : 103 бит/сек
ElementCount : 1588
Размер потока : 87,1 Кбайт (0%)
Язык : Ukrainian
Default : Нет
Forced : Нет
Текст #5
Идентификатор : 12
Формат : UTF-8
Идентификатор кодека : S_TEXT/UTF8
Идентификатор кодека/Информация : UTF-8 Plain Text
Продолжительность : 1 ч. 55 м.
Битрейт : 65 бит/сек
ElementCount : 1440
Размер потока : 55,2 Кбайт (0%)
Язык : English
Default : Нет
Forced : Нет



   Похожие торренты   Торрент   Размер 
В этой теме нет новых непрочитанных сообщений. Тачки / Cars (2006) WEB-DLRip от Koenig | Open Matte | D, P

98 | 2

2.18 ГБ

В этой теме нет новых непрочитанных сообщений. Тачки / Тачки 2 / Мультачки: Байки Мэтра / Cars / Cars 2 / Mater's Tall Tales (2006-2011) 3xDVD9 от Youtracker | D | Лицензия

28 | 28

21.76 ГБ

В этой теме нет новых непрочитанных сообщений. Тачки на больших гонках: Тачки-2 / The Little Cars in the Great Race (2006) DVDRip

101 | 12

350.17 МБ

В этой теме нет новых непрочитанных сообщений. Тачки / Cars (2006) BDRip 1080p

44 | 7

7.42 ГБ

В этой теме нет новых непрочитанных сообщений. Тачки / Cars (2006) BDRip 1080p

94 | 26

4.37 ГБ

В этой теме нет новых непрочитанных сообщений. Тачки / Cars (2006) BDRip 1080p от Leonardo and Scarabey | Лицензия

628 | 36

7.94 ГБ

В этой теме нет новых непрочитанных сообщений. Тачки: Дилогия / Cars: Dilogy (2006-2011) BDRip 1080p от NoLimits-Team

11 | 4

15.9 ГБ




Вы не можете начинать темы
Вы не можете отвечать на сообщения
Вы не можете редактировать свои сообщения
Вы не можете удалять свои сообщения
Вы не можете добавлять вложения

Перейти:  
Для Мосгорсуда, Роскомнадзора и рекламодателей: mosgorsud-torrent[собачка]yandex.ru
 Вход
ppkBB3cker v.2 © 2008-2014 @ PPK
[ Time : 0.037s | 18 Queries | GZIP : Off ]

cron