img image001 image001 image001 image001 image001 image001 image001 image001 image001 image001 image001 image001 image001 image001 image001

Planets Sun Sun Sun
Статистика раздачи
Автор: Nickolas3434 | Размер: 914.02 МБ | Добавлен: 20 дек 2017
Раздают: 1546    Качают: 15
Скачать торрент
Скачать торрент
Описание торрента

СообщениеДобавлено: 20 дек 2017 

Информация о фильме
Название: Олаф и холодное приключение
Оригинальное название: Olaf's Frozen Adventure
Год выхода: 2017
Жанр: мультфильм, короткометражка, мюзикл, фэнтези, комедия, приключения, семейный
Режиссер: Кевин Дитерс, Стиви Вермерс
В ролях: Джош Гад, Идина Мензел, Кристен Белл, Джонатан Грофф, Крис Уильямс, Джон де Ланси, Лаури Фрайзер, Benjamin Deters, Ева Белла, Evan Agos
О фильме:
Неунывающий снеговик объединяется с северным оленем Свеном, чтобы принести праздник своим друзьям. C тех пор, как ворота королевского замка снова стали открыты для всех жителей Эренделла, это — самые первые рождественские каникулы. По такому поводу Анна и Эльза приготовили большой праздник для своих горожан, но как же они были удивлены, когда все до единого гостя неожиданно засобирались домой сразу после начала торжества, чтобы насладиться праздником в кругу своих собственных семей. Вот только у Анны и Эльзы не оказалось рождественских семейных традиций. Олаф не мог позволить друзьям грустить в Рождество и с помощью Свена отправился в путешествие по королевству, заходя в каждый дом в поисках самых лучших праздничных традиций и обычаев.

Страна: США
Студия: Walt Disney Animation Studios
Продолжительность: 00:22:13
Перевод: Дубляж, вкл. песни
Файл
Кодек: AVC / MP3
Качество: WEBDL 1080p
Видео: AVC/H.264, 1920x1080 (16:9), 23.976 fps, 4995 Kbps (0.100 bit/pixel)
Звук:
Аудио #1: MP3, 44.1 KHz, 2 ch, 256 Kbps, CBR (Русский)
Аудио #2: AC-3, 48.0 KHz, 6 ch, 384 Kbps, CBR (Английский)
Субтитры: Английские
1
Complete name : H:мультфильмыDownloadsOlafs.Frozen.Adventure.2017.WEB-DL.1080p-LQ.mkv
Format : Matroska
Format version : Version 4 / Version 2
File size : 914 MiB
Duration : 22mn 13s
Overall bit rate : 5 749 Kbps
Encoded date : UTC 2017-12-19 14:58:56
Writing application : mkvmerge v7.7.0 ('Six Voices') 64bit built on Feb 28 2015 23:39:33
Writing library : libebml v1.3.1 + libmatroska v1.4.2
DURATION : 00:21:53.750000000
NUMBER_OF_FRAMES : 50292
NUMBER_OF_BYTES : 42040007
_STATISTICS_WRITING_APP : mkvmerge v7.7.0 ('Six Voices') 64bit built on Feb 28 2015 23:39:33
_STATISTICS_WRITING_DATE_UT : 2017-12-19 14:58:56
_STATISTICS_TAGS : BPS DURATION NUMBER_OF_FRAMES NUMBER_OF_BYTES
Video
ID : 1
Format : AVC
Format/Info : Advanced Video Codec
Format profile : [email protected]
Format settings, CABAC : Yes
Format settings, ReFrames : 4 frames
Codec ID : V_MPEG4/ISO/AVC
Duration : 22mn 13s
Bit rate : 4 995 Kbps
Width : 1 920 pixels
Height : 1 080 pixels
Display aspect ratio : 16:9
Frame rate mode : Constant
Frame rate : 23.976 fps
Color space : YUV
Chroma subsampling : 4:2:0
Bit depth : 8 bits
Scan type : Progressive
Bits/(Pixel*Frame) : 0.100
Stream size : 794 MiB (87%)
Language : English
Default : Yes
Forced : No
Color range : Limited
Color primaries : BT.709
Transfer characteristics : BT.709
Matrix coefficients : BT.709
Audio #1
ID : 2
Format : MPEG Audio
Format version : Version 1
Format profile : Layer 3
Codec ID : A_MPEG/L3
Codec ID/Hint : MP3
Duration : 22mn 13s
Bit rate mode : Constant
Bit rate : 256 Kbps
Channel(s) : 2 channels
Sampling rate : 44.1 KHz
Compression mode : Lossy
Delay relative to video : -43ms
Stream size : 40.7 MiB (4%)
Language : Russian
Default : Yes
Forced : No
Audio #2
ID : 3
Format : AC-3
Format/Info : Audio Coding 3
Mode extension : CM (complete main)
Format settings, Endianness : Big
Codec ID : A_AC3
Duration : 22mn 13s
Bit rate mode : Constant
Bit rate : 384 Kbps
Channel(s) : 6 channels
Channel positions : Front: L C R, Side: L R, LFE
Sampling rate : 48.0 KHz
Compression mode : Lossy
Delay relative to video : -43ms
Stream size : 61.1 MiB (7%)
Language : English
Default : No
Forced : No
Text
ID : 4
Format : UTF-8
Codec ID : S_TEXT/UTF8
Codec ID/Info : UTF-8 Plain Text
Language : English
Default : No
Forced : No



   Похожие торренты   Торрент   Размер 
В этой теме нет новых непрочитанных сообщений. Олаф и холодное приключение и 6 зимних историй / Olaf's Frozen Adventure - Includes 6 Disney Tales (2017) WEB-DL 1080p | iTunes

469 | 11

2.87 ГБ

В этой теме нет новых непрочитанных сообщений. Олаф и холодное приключение / Olaf's Frozen Adventure (2017) WEB-DLRip от ExKinoRay | iTunes

530 | 6

401.68 МБ

В этой теме нет новых непрочитанных сообщений. Олаф и холодное приключение и 6 зимних историй / Olaf's Frozen Adventure - Includes 6 Disney Ta (2017) WEB-DLRip-AVC от Kaztorrents | iTunes

799 | 23

1.46 ГБ

В этой теме нет новых непрочитанных сообщений. Олаф и холодное приключение и 6 зимних историй / Olaf's Frozen Adventure - Includes 6 Disney Tales (2017) WEB-DLRip от MegaPeer | iTunes

1082 | 34

1.09 ГБ

В этой теме нет новых непрочитанных сообщений. Холодное сердце / Frozen (2013) BDRip 1080p

2053 | 81

5.76 ГБ

В этой теме нет новых непрочитанных сообщений. Холодное Сердце / Frozen (2013) BDRip 1080p | iTunes

169 | 53

8.18 ГБ

В этой теме нет новых непрочитанных сообщений. Холодное сердце / Frozen (2013) BDRip 1080p | D | Лицензия | 48 fps

1991 | 84

6.72 ГБ




Вы не можете начинать темы
Вы не можете отвечать на сообщения
Вы не можете редактировать свои сообщения
Вы не можете удалять свои сообщения
Вы не можете добавлять вложения

Перейти:  
Для Мосгорсуда, Роскомнадзора и рекламодателей: mosgorsud-torrent[собачка]yandex.ru
 Вход
ppkBB3cker v.2 © 2008-2014 @ PPK
[ Time : 0.033s | 17 Queries | GZIP : Off ]

cron