img image001 image001 image001 image001 image001 image001 image001 image001 image001 image001 image001 image001 image001 image001 image001

Planets Sun Sun Sun
Статистика раздачи
Автор: Nickolas3434 | Размер: 2.85 ГБ | Добавлен: 27 дек 2017
Раздают: 25    Качают: 5
Скачать торрент
Скачать торрент
Описание торрента

СообщениеДобавлено: 27 дек 2017 

Информация о фильме
Название: Ганц: О
Оригинальное название: / Gantz: O
Год выхода: 2016
Жанр: Фантастика, ужасы, боевик
Режиссер: Ясуси Кавамура, Кейити Саито
В ролях: Дайсукэ Оно, Саори Хаями, Мао Итимити, Тэруаки Огава, Масая Оносака, Юки Кадзи, Томохиро Каку, Сюити Икэда, Кэндзиро Цуда, Масанэ Цукаяма, Хисанори Ёсида и др.
О фильме:
Где-то в Токио расположена обычная с виду комната, где находится чёрная сфера под названием Ганц. Время от времени в комнату телепортируются люди, которые должны были умереть в тот самый момент. Сфера снабжает их оружием и спецкостюмами и отправляет на смертельно опасное задание: убивать пришельцев, обосновавшихся на Земле, о чём обычные люди не догадываются. С заданий возвращаются не все.

Страна: Япония
Студия: Digital Frontier
Продолжительность: 01:35:13
Перевод: профессиональный (многоголосый) - AlexFilm
Файл
Кодек: H.265
Качество: BDRip HEVC-10bit 720р от SuperMin
Видео: 1280x688 (1.85:1), 3893 kbps, 23.976 fps
Звук: Русский (AC3, 6 ch, 384 Кбит/с)
Субтитры: русские
x265 [info]: frame I: 1537, Avg QP:19.86 kb/s: 14669.43
x265 [info]: frame P: 27188, Avg QP:19.75 kb/s: 6754.06
x265 [info]: frame B: 108242, Avg QP:22.90 kb/s: 3020.20
x265 [info]: consecutive B-frames: 11.0% 3.3% 9.6% 19.1% 12.0% 31.7% 5.3% 4.9% 3.0%
encoded 136967 frames in 63417.58s (2.16 fps), 3892.10 kb/s, Avg QP:21.79
General
Unique ID : 245393669261940851941621475921325773719 (0xB89D1A011C975003BBBD18A71388D397)
Complete name : E:МУЛЬТЫ265Ганц.О.2016.x265.10bits.BDRip-HEVC.mkv
Format : Matroska
Format version : Version 4 / Version 2
File size : 2.85 GiB
Duration : 1 h 35 min
Overall bit rate : 4 279 kb/s
Movie name : Ганц: О / Gantz: O (2016) - #LORDKILL#
Encoded date : UTC 2017-12-24 10:21:39
Writing application : mkvmerge v9.5.0 ('Quiet Fire') 64bit
Writing library : libebml v1.3.4 + libmatroska v1.4.5
Video
ID : 1
Format : HEVC
Format/Info : High Efficiency Video Coding
Format profile : Main [email protected]@High
Codec ID : V_MPEGH/ISO/HEVC
Duration : 1 h 35 min
Bit rate : 3 893 kb/s
Width : 1 280 pixels
Height : 688 pixels
Display aspect ratio : 1.85:1
Frame rate mode : Constant
Frame rate : 23.976 (24000/1001) FPS
Original frame rate : 23.976 (23976/1000) FPS
Color space : YUV
Chroma subsampling : 4:2:0
Bit depth : 10 bits
Bits/(Pixel*Frame) : 0.184
Stream size : 2.59 GiB (91%)
Writing library : x265 2.0+48-dad8b32c68d44c92:[Windows][GCC 6.1.0][64 bit] 10bit: KG7x [x265.ru]
Encoding settings : wpp / ctu=64 / min-cu-size=8 / max-tu-size=32 / tu-intra-depth=1 / tu-inter-depth=1 / me=2 / subme=6 / merange=57 / rect / amp / max-merge=2 / temporal-mvp / no-early-skip / rskip / rdpenalty=0 / no-tskip / no-tskip-fast / strong-intra-smoothing / no-lossless / no-cu-lossless / no-constrained-intra / no-fast-intra / no-open-gop / no-temporal-layers / interlace=0 / keyint=240 / min-keyint=23 / scenecut=40 / rc-lookahead=20 / lookahead-slices=0 / bframes=8 / bframe-bias=0 / b-adapt=2 / ref=5 / limit-refs=3 / no-limit-modes / weightp / no-weightb / aq-mode=1 / qg-size=32 / aq-strength=2.00 / cbqpoffs=0 / crqpoffs=0 / rd=3 / psy-rd=2.00 / rdoq-level=0 / psy-rdoq=0.00 / log2-max-poc-lsb=8 / no-rd-refine / signhide / deblock=0:0 / sao / no-sao-non-deblock / b-pyramid / cutree / no-intra-refresh / rc=crf / crf=22.0 / qcomp=0.60 / qpmin=0 / qpmax=69 / qpstep=4 / vbv-maxrate=100000 / vbv-bufsize=100000 / crf-max=0.0 / ipratio=1.40 / pbratio=1.30
Default : Yes
Forced : No
Audio
ID : 2
Format : AC-3
Format/Info : Audio Coding 3
Mode extension : CM (complete main)
Format settings, Endianness : Big
Codec ID : A_AC3
Duration : 1 h 35 min
Bit rate mode : Constant
Bit rate : 384 kb/s
Channel(s) : 6 channels
Channel positions : Front: L C R, Side: L R, LFE
Sampling rate : 48.0 kHz
Frame rate : 31.250 FPS (1536 spf)
Bit depth : 16 bits
Compression mode : Lossy
Stream size : 262 MiB (9%)
Title : многоголосый (AlexFilm)
Language : Russian
Default : Yes
Forced : No
Text
ID : 3
Format : UTF-8
Codec ID : S_TEXT/UTF8
Codec ID/Info : UTF-8 Plain Text
Duration : 1 h 29 min
Bit rate : 45 b/s
Count of elements : 763
Stream size : 29.9 KiB (0%)
Language : Russian
Default : No
Forced : No
Menu
00:00:00.000 : en:Chapter 01
00:04:29.894 : en:Chapter 02
00:15:29.053 : en:Chapter 03
00:26:43.727 : en:Chapter 04
00:42:17.785 : en:Chapter 05
00:58:29.172 : en:Chapter 06
01:10:47.034 : en:Chapter 07
01:21:59.247 : en:Chapter 08
01:30:03.397 : en:Chapter 09
01:35:11.831 : en:Chapter 10



   Похожие торренты   Торрент   Размер 
В этой теме нет новых непрочитанных сообщений. Ганц (фильм) / Ганц: О / Gantz: O / Gantz O (Сато Кэйити) [Movie] [RAW] [RUS(int)+JAP] [2016, приключения, фантастика, BDRip] [1080p]

4 | 0

7.32 ГБ

В этой теме нет новых непрочитанных сообщений. Ганц: О / Gantz: O (2016) BDRip 720р от FreeRutor | P

149 | 3

6.82 ГБ

В этой теме нет новых непрочитанных сообщений. Ганц: О / Gantz: O (2016) WEBRip 720р | L

48 | 8

2.93 ГБ

В этой теме нет новых непрочитанных сообщений. Ганц (фильм) / Ганц: O / Gantz O [Movie] (2016) DVDRip | LE-Production

16 | 0

5.15 ГБ

В этой теме нет новых непрочитанных сообщений. Ганц: О / Gantz: O (2016) BDRip 720p | P, L

66 | 9

1.81 ГБ

В этой теме нет новых непрочитанных сообщений. Ганц: О / Gantz: O (2016) BDRip-AVC от ExKinoRay | P

79 | 3

2.79 ГБ

В этой теме нет новых непрочитанных сообщений. Ганц: О / Gantz: O (2016) BDRip 1080p | LE-Production

33 | 1

11.52 ГБ




Вы не можете начинать темы
Вы не можете отвечать на сообщения
Вы не можете редактировать свои сообщения
Вы не можете удалять свои сообщения
Вы не можете добавлять вложения

Перейти:  
Для Мосгорсуда, Роскомнадзора и рекламодателей: mosgorsud-torrent[собачка]yandex.ru
 Вход
ppkBB3cker v.2 © 2008-2014 @ PPK
[ Time : 0.057s | 19 Queries | GZIP : Off ]

cron