img image001 image001 image001 image001 image001 image001 image001 image001 image001 image001 image001 image001 image001 image001 image001

Planets Sun Sun Sun
Статистика раздачи
Автор: Nickolas3434 | Размер: 5.66 ГБ | Добавлен: 01 янв 2018
Раздают: 58    Качают: 1
Скачать торрент
Скачать торрент
Описание торрента

СообщениеДобавлено: 01 янв 2018 

Тяжелый металл / Heavy Metal

Выпущено: Канада, Студия: Canadian Film Development Corporation (CFDC), Columbia Pictures Corporation, Famous Players, Guardian Trust Company
Жанр: мультфильм, фантастика, фэнтези, музыка
Год выпуска: 1981
Продолжительность: 01:30:20
Перевод: Профессиональный (Дублированный), Профессиональный (Двухголосый закадровый), Авторский (Одноголосый закадровый) - С.Визгунов
Режиссер: Джеральд Поттертон : Gerald Potterton
Роли озвучивали: Дон Фрэнкс, Кэролайн Семпл, Ричард Романус, Сьюзэн Роман, Эл Уоксмен, Харви Аткин, Джон Кэнди, Гленис Вуттон Гросс, Мэрлин Лайтстоун, Джеки Барроуз
О Фильме: Это великолепный мультфильм для взрослых, снятый с огромным размахом по комиксам знаменитых художников Кевина Истмэна, Саймона Бизли и Эрика Тэлбота, рисующих для журнала «Heavy Metal». Удивительное сочетание ужасов, черного юмора и великолепного саундтрека, включающего Nazareth, Black Sabbath, Sammy Hagar, Blue Oyster Cult и др. Этот мультфильм заставит вас с затаенным дыханием следить за напряженной битвой между вселенскими силами добра и зла.

Кодек: х264
Качество: BDRip 720p
Видео: MPEG-4 AVC, 1278x692, 23,976 fps, 7350 Кбит/с
Аудио 1: Русский, 48 kHz, AC3 Dolby Digital, 2 ch, 192 Кбит/с (Дублированный)
Аудио 2: Русский, 48 kHz, AC3 Dolby Digital, 6 ch, 384 Кбит/с Профессиональный (Двухголосый закадровый)
Аудио 3: Русский, 48 kHz, FLAC, 2 ch, 588 Кбит/с Авторский (Одноголосый закадровый) - С.Визгунов
Аудио 4: Оригинал, 48 kHz, AC3 Dolby Digital, 6 ch, 192 Кбит/с
Субтитры: Русские, Английские
Главы: Есть

x264 [info]: frame I:1043 Avg QP:15.31 size:207967
x264 [info]: frame P:32622 Avg QP:18.85 size: 69768
x264 [info]: frame B:96296 Avg QP:20.14 size: 25826
Общее
Уникальный идентификатор : 185288408640530586769968117930532296838 (0x8B653FDC4629CBECAE08721BA5B45886)
Полное имя : E:Мои рипыТяжелый металл 1981_BDRip 720p_KORSAR.mkv
Формат : Matroska
Версия формата : Version 2
Размер файла : 5,66 Гбайт
Продолжительность : 1 ч. 30 м.
Режим общего битрейта : Переменный
Общий поток : 8964 Кбит/сек
Название фильма : Тяжелый металл 1981_BDRip 720p
Дата кодирования : UTC 2017-12-30 14:30:51
Программа кодирования : mkvmerge v5.8.0 ('No Sleep / Pillow') built on Sep 2 2012 15:37:04
Библиотека кодирования : libebml v1.2.3 + libmatroska v1.3.0
Видео
Идентификатор : 1
Формат : AVC
Формат/Информация : Advanced Video Codec
Профиль формата : [email protected]
Настройки формата : CABAC / 9 Ref Frames
Параметр CABAC формата : Да
Параметр RefFrames формата : 9 кадров
Идентификатор кодека : V_MPEG4/ISO/AVC
Продолжительность : 1 ч. 30 м.
Номинальный битрейт : 7350 Кбит/сек
Ширина : 1278 пикселей
Высота : 692 пикселя
Соотношение сторон : 1,85:1
Режим частоты кадров : Постоянный
Частота кадров : 23,976 (24000/1001) кадра/сек
Цветовое пространство : YUV
Субдискретизация насыщенности : 4:2:0
Битовая глубина : 8 бит
Тип развёртки : Прогрессивная
Бит/(Пиксели*Кадры) : 0.347
Библиотека кодирования : x264 core 152 r2851kMod ba24899
Настройки программы : cabac=1 / ref=9 / deblock=1:-2:-1 / analyse=0x3:0x113 / me=umh / subme=11 / psy=1 / fade_compensate=0.00 / psy_rd=1.05:0.10 / mixed_ref=1 / me_range=48 / chroma_me=1 / trellis=2 / 8x8dct=1 / cqm=0 / deadzone=21,11 / fast_pskip=0 / chroma_qp_offset=-3 / threads=12 / lookahead_threads=3 / sliced_threads=0 / nr=0 / decimate=0 / interlaced=0 / bluray_compat=0 / constrained_intra=0 / bframes=10 / b_pyramid=2 / b_adapt=2 / b_bias=0 / direct=3 / weightb=1 / open_gop=0 / weightp=2 / keyint=240 / keyint_min=23 / scenecut=40 / intra_refresh=0 / rc_lookahead=40 / rc=2pass / mbtree=0 / bitrate=7350 / ratetol=1.0 / qcomp=0.60 / qpmin=0 / qpmax=39 / qpstep=4 / cplxblur=20.0 / qblur=0.5 / vbv_maxrate=50000 / vbv_bufsize=62500 / nal_hrd=none / filler=0 / ip_ratio=1.40 / pb_ratio=1.30 / aq=1:0.90
Язык : English
Default : Да
Forced : Нет
Цветовой диапазон : Limited
Основные цвета : BT.709
Характеристики трансфера : BT.709
Коэффициенты матрицы : BT.709
Аудио #1
Идентификатор : 2
Формат : AC-3
Формат/Информация : Audio Coding 3
Параметр Endianness формата : Big
Идентификатор кодека : A_AC3
Продолжительность : 1 ч. 30 м.
Вид битрейта : Постоянный
Битрейт : 192 Кбит/сек
Каналы : 2 канала
Расположение каналов : Front: L R
Частота : 48,0 КГц
Частота кадров : 31,250 кадров/сек (1536 SPF)
Битовая глубина : 16 бит
Метод сжатия : С потерями
Размер потока : 124 Мбайт (2%)
Заголовок : DUB
Язык : Russian
Default : Да
Forced : Нет
Statistics Tags Issue : mkvmerge v7.5.0 ('Glass Culture') 32bit built on Jan 4 2015 16:37:25 2015-02-25 17:46:13 / mkvmerge v5.8.0 ('No Sleep / Pillow') built on Sep 2 2012 15:37:04 2017-12-30 14:30:51
FromStats_BitRate : 192000
FromStats_Duration : 01:30:20.448000000
FromStats_FrameCount : 169389
FromStats_StreamSize : 130090752
Аудио #2
Идентификатор : 3
Формат : AC-3
Формат/Информация : Audio Coding 3
Параметр Endianness формата : Big
Идентификатор кодека : A_AC3
Продолжительность : 1 ч. 30 м.
Вид битрейта : Постоянный
Битрейт : 384 Кбит/сек
Каналы : 6 каналов
Расположение каналов : Front: L C R, Side: L R, LFE
Частота : 48,0 КГц
Частота кадров : 31,250 кадров/сек (1536 SPF)
Битовая глубина : 16 бит
Метод сжатия : С потерями
Размер потока : 248 Мбайт (4%)
Заголовок : DVO
Язык : Russian
Default : Нет
Forced : Нет
Statistics Tags Issue : mkvmerge v7.5.0 ('Glass Culture') 32bit built on Jan 4 2015 16:37:25 2015-02-25 17:46:13 / mkvmerge v5.8.0 ('No Sleep / Pillow') built on Sep 2 2012 15:37:04 2017-12-30 14:30:51
FromStats_BitRate : 384000
FromStats_Duration : 01:30:19.872000000
FromStats_FrameCount : 169371
FromStats_StreamSize : 260153856
Аудио #3
Идентификатор : 4
Формат : FLAC
Формат/Информация : Free Lossless Audio Codec
Идентификатор кодека : A_FLAC
Продолжительность : 1 ч. 30 м.
Вид битрейта : Переменный
Каналы : 2 канала
Расположение каналов : Front: L R
Частота : 48,0 КГц
Битовая глубина : 16 бит
Заголовок : AVO - С.Визгунов
Библиотека кодирования : libFLAC 1.2.1 (UTC 2007-09-17)
Язык : Russian
Default : Нет
Forced : Нет
Statistics Tags Issue : mkvmerge v7.5.0 ('Glass Culture') 32bit built on Jan 4 2015 16:37:25 2015-02-25 17:46:13 / mkvmerge v5.8.0 ('No Sleep / Pillow') built on Sep 2 2012 15:37:04 2017-12-30 14:30:51
FromStats_BitRate : 587708
FromStats_Duration : 01:30:20.448000000
FromStats_FrameCount : 63521
FromStats_StreamSize : 398205537
Аудио #4
Идентификатор : 5
Формат : AC-3
Формат/Информация : Audio Coding 3
Параметр Endianness формата : Big
Идентификатор кодека : A_AC3
Продолжительность : 1 ч. 30 м.
Вид битрейта : Постоянный
Битрейт : 448 Кбит/сек
Каналы : 6 каналов
Расположение каналов : Front: L C R, Side: L R, LFE
Частота : 48,0 КГц
Частота кадров : 31,250 кадров/сек (1536 SPF)
Битовая глубина : 16 бит
Метод сжатия : С потерями
Размер потока : 289 Мбайт (5%)
Заголовок : ENG
Default : Нет
Forced : Нет
Текст #1
Идентификатор : 6
Формат : UTF-8
Идентификатор кодека : S_TEXT/UTF8
Идентификатор кодека/Информация : UTF-8 Plain Text
Заголовок : Rus Sub
Язык : Russian
Default : Нет
Forced : Нет
Statistics Tags Issue : mkvmerge v7.5.0 ('Glass Culture') 32bit built on Jan 4 2015 16:37:25 2015-02-25 17:46:13 / mkvmerge v5.8.0 ('No Sleep / Pillow') built on Sep 2 2012 15:37:04 2017-12-30 14:30:51
FromStats_BitRate : 49
FromStats_Duration : 01:24:06.120000000
FromStats_FrameCount : 387
FromStats_StreamSize : 30961
Текст #2
Идентификатор : 7
Формат : UTF-8
Идентификатор кодека : S_TEXT/UTF8
Идентификатор кодека/Информация : UTF-8 Plain Text
Заголовок : Eng Sub
Язык : English
Default : Нет
Forced : Нет
Statistics Tags Issue : mkvmerge v7.5.0 ('Glass Culture') 32bit built on Jan 4 2015 16:37:25 2015-02-25 17:46:13 / mkvmerge v5.8.0 ('No Sleep / Pillow') built on Sep 2 2012 15:37:04 2017-12-30 14:30:51
FromStats_BitRate : 30
FromStats_Duration : 01:24:05.956000000
FromStats_FrameCount : 547
FromStats_StreamSize : 19497
Меню
00:00:00.000 : en:00:00:00.000
00:06:49.409 : en:00:06:49.409
00:13:00.780 : en:00:13:00.780
00:16:45.713 : en:00:16:45.713
00:22:36.230 : en:00:22:36.230
00:27:59.428 : en:00:27:59.428
00:33:21.208 : en:00:33:21.208
00:38:04.073 : en:00:38:04.073
00:41:04.587 : en:00:41:04.587
00:47:39.815 : en:00:47:39.815
00:55:28.200 : en:00:55:28.200
00:59:49.044 : en:00:59:49.044
01:02:46.763 : en:01:02:46.763
01:09:14.192 : en:01:09:14.192
01:16:24.830 : en:01:16:24.830
01:22:21.895 : en:01:22:21.895




   Похожие торренты   Торрент   Размер 
В этой теме нет новых непрочитанных сообщений. Тяжелый металл / Heavy Metal (1981) BDRip от SilverCinema

3 | 6

1.46 ГБ

В этой теме нет новых непрочитанных сообщений. Тяжелый металл / Heavy Metal (1981) BDRip-AVC от SilverCinema

45 | 3

2.02 ГБ

В этой теме нет новых непрочитанных сообщений. Тяжёлый металл / Heavy Metal (1981) BDRip от MediaClub | P

73 | 129

1.73 ГБ

В этой теме нет новых непрочитанных сообщений. Тяжелый металл / Heavy Metal (1981) DVDRip

254 | 11

1.45 ГБ

В этой теме нет новых непрочитанных сообщений. Тяжелый металл 2000 / Heavy Metal 2000 (2000) DVDRip-AVC от KORSAR | P

49 | 2

1.87 ГБ

В этой теме нет новых непрочитанных сообщений. Турбулентность 3: Тяжёлый металл / Turbulence 3: Heavy Metal (2001) WEB-DLRip от NovaLan

204 | 6

1.75 ГБ

В этой теме нет новых непрочитанных сообщений. Тяжёлый металл 2000 / Heavy Metal 2000 / Heavy Metal: F.A.K.K. 2 (2000) DVDRip-AVC | P

600 | 91

2.08 ГБ




Вы не можете начинать темы
Вы не можете отвечать на сообщения
Вы не можете редактировать свои сообщения
Вы не можете удалять свои сообщения
Вы не можете добавлять вложения

Перейти:  
Для Мосгорсуда, Роскомнадзора и рекламодателей: mosgorsud-torrent[собачка]yandex.ru
 Вход
ppkBB3cker v.2 © 2008-2014 @ PPK
[ Time : 0.045s | 19 Queries | GZIP : Off ]

cron