img image001 image001 image001 image001 image001 image001 image001 image001 image001 image001 image001 image001 image001 image001 image001

Planets Sun Sun Sun
Статистика раздачи
Автор: Nickolas3434 | Размер: 1.46 ГБ | Добавлен: 01 янв 2018
Раздают: 799    Качают: 23
Скачать торрент
Скачать торрент
Описание торрента

СообщениеДобавлено: 01 янв 2018 

✦ Олаф и холодное приключение и 6 зимних историй / Olaf's Frozen Adventure - Includes 6 Disney Tales ✦

Информация о фильме:
❖ Год выпуска: 2017
❖ Страна: США, Walt Disney Animation Studios
❖ Жанр: мультфильм, короткометражка, мюзикл, фэнтези, комедия, приключения, семейный
❖ Перевод: Дублированный | [ iTunes]
❖ Продолжительность: 01:08:45
❖ Режиссер: Кевин Дитерс , Стиви Вермерс
❖ В ролях: Джош Гад, Идина Мензел, Кристен Белл, Джонатан Грофф, Крис Уильямс, Джон де Ланси, Лаури Фрайзер, Benjamin Deters, Ева Белла, Evan Agos
❖ Релиз от:
❖ Автор рипа: ProT1gR
Описание фильма:
В мире — хаос и паника. Небо закрыли нависающие над городами космические корабли, которые через огромные столпы света затягивают к себе на борт тысячи людей прямо с улиц. Чтобы найти похищенного сына, бесстрашному детективу придётся проникнуть на корабль агрессивных пришельцев, отбить атаку этих разъярённых тварей и... попытаться вернуть планету землянам.

Технические данные файла:
❖ Качество: WEB-DLRip-AVC (Исх. WEB-DL 1080p)
❖ Формат: MKV
❖ Видео: 1024x576 (16:9), 23.976 fps, MPEG-4 AVC ~ 2 650 kbps (0.187 bit/pixel)
❖ Аудио: AC3, 48.0 KHz, 6 ch, 384 kbps
General
Unique ID : 246291356472584280018681488160903341939 (0xB949FD66A4245CB7B91828CE714F2773)
Complete name : X:Olaf's Frozen Adventure - Includes 6 Disney Tales.[2017].WEB-DLRip.[Kaztorrents].mkv
Format : Matroska
Format version : Version 2
File size : 1.46 GiB
Duration : 1 h 8 min
Overall bit rate : 3 035 kb/s
Encoded date : UTC 2017-12-30 20:45:23
Writing application : mkvmerge v7.8.0 ('River Man') 32bit built on Apr 3 2015 12:11:22
Writing library : libebml v1.3.1 + libmatroska v1.4.2
Video
ID : 1
Format : AVC
Format/Info : Advanced Video Codec
Format profile : [email protected]
Format settings, CABAC : Yes
Format settings, ReFrames : 11 frames
Codec ID : V_MPEG4/ISO/AVC
Duration : 1 h 8 min
Bit rate : 2 650 kb/s
Width : 1 024 pixels
Height : 576 pixels
Display aspect ratio : 16:9
Frame rate mode : Constant
Frame rate : 23.976 (24000/1001) FPS
Color space : YUV
Chroma subsampling : 4:2:0
Bit depth : 8 bits
Scan type : Progressive
Bits/(Pixel*Frame) : 0.187
Stream size : 1.24 GiB (85%)
Writing library : x264 core 146 r2538 121396c
Encoding settings : cabac=1 / ref=11 / deblock=1:-3:-3 / analyse=0x3:0x113 / me=umh / subme=11 / psy=1 / psy_rd=1.00:0.00 / mixed_ref=1 / me_range=48 / chroma_me=1 / trellis=2 / 8x8dct=1 / cqm=0 / deadzone=21,11 / fast_pskip=0 / chroma_qp_offset=-2 / threads=6 / lookahead_threads=1 / sliced_threads=0 / nr=0 / decimate=0 / interlaced=0 / bluray_compat=0 / constrained_intra=0 / bframes=11 / b_pyramid=2 / b_adapt=2 / b_bias=0 / direct=3 / weightb=1 / open_gop=0 / weightp=2 / keyint=240 / keyint_min=23 / scenecut=40 / intra_refresh=0 / rc_lookahead=40 / rc=2pass / mbtree=0 / bitrate=2650 / ratetol=1.0 / qcomp=0.60 / qpmin=0 / qpmax=69 / qpstep=4 / cplxblur=20.0 / qblur=0.5 / vbv_maxrate=50000 / vbv_bufsize=62500 / nal_hrd=none / filler=0 / ip_ratio=1.40 / pb_ratio=1.30 / aq=1:1.10
Default : Yes
Forced : No
Audio
ID : 2
Format : AC-3
Format/Info : Audio Coding 3
Format settings, Endianness : Big
Codec ID : A_AC3
Duration : 1 h 8 min
Bit rate mode : Constant
Bit rate : 384 kb/s
Channel(s) : 6 channels
Channel positions : Front: L C R, Side: L R, LFE
Sampling rate : 48.0 kHz
Frame rate : 31.250 FPS (1536 spf)
Bit depth : 16 bits
Compression mode : Lossy
Stream size : 189 MiB (13%)
Service kind : Complete Main
Default : Yes
Forced : No





   Похожие торренты   Торрент   Размер 
В этой теме нет новых непрочитанных сообщений. Олаф и холодное приключение и 6 зимних историй / Olaf's Frozen Adventure - Includes 6 Disney Tales (2017) WEB-DLRip от MegaPeer | iTunes

1082 | 34

1.09 ГБ

В этой теме нет новых непрочитанных сообщений. Олаф и холодное приключение и 6 зимних историй / Olaf's Frozen Adventure - Includes 6 Disney Tales (2017) WEB-DL 1080p | iTunes

469 | 11

2.87 ГБ

В этой теме нет новых непрочитанных сообщений. Олаф и холодное приключение / Olaf's Frozen Adventure (2017) WEB-DLRip от ExKinoRay | iTunes

530 | 6

401.68 МБ

В этой теме нет новых непрочитанных сообщений. Олаф и холодное приключение / Olaf's Frozen Adventure (2017) WEBDL 1080p

1546 | 15

914.02 МБ

В этой теме нет новых непрочитанных сообщений. Холодное Сердце / Frozen (2013) HDRip | iTunes

197 | 25

2.06 ГБ

В этой теме нет новых непрочитанных сообщений. Холодное сердце / Frozen (2013) BDRip-AVC от ExKinoRay | iTunes

76 | 29

2.56 ГБ

В этой теме нет новых непрочитанных сообщений. Холодное сердце / Frozen (2013) HDRip от Scarabey | D | iTunes

637 | 26

745.81 МБ




Вы не можете начинать темы
Вы не можете отвечать на сообщения
Вы не можете редактировать свои сообщения
Вы не можете удалять свои сообщения
Вы не можете добавлять вложения

Перейти:  
Для Мосгорсуда, Роскомнадзора и рекламодателей: mosgorsud-torrent[собачка]yandex.ru
 Вход
ppkBB3cker v.2 © 2008-2014 @ PPK
[ Time : 0.035s | 18 Queries | GZIP : Off ]

cron