img image001 image001 image001 image001 image001 image001 image001 image001 image001 image001 image001 image001 image001 image001 image001

Planets Sun Sun Sun
Статистика раздачи
Автор: Nickolas3434 | Размер: 1.46 ГБ | Добавлен: 01 янв 2018
Раздают: 780    Качают: 17
Скачать торрент
Скачать торрент
Описание торрента

СообщениеДобавлено: 01 янв 2018 

✦ Фиксики: Большой секрет ✦

Информация о фильме:
❖ Год выпуска: 2017
❖ Страна: Россия / Анимационная студия «Аэроплан»
❖ Жанр: Мультфильм, приключения, комедия, музыка
❖ Перевод: Не требуется | [ iTunes]
❖ Продолжительность: 01:17:57
❖ Режиссер: Васико Бедошвили, Андрей Колпин, Иван Пшонкин
❖ В ролях: Дмитрий Назаров, Александр Пушной, Лариса Брохман, Диомид Виноградов, Инна Королёва, Пётр Иващенко, Яков Васильев, Дарья Колбасеева, Варвара Обидор, Прохор Чеховской.к
❖ Релиз от:
❖ Автор рипа: ProT1gR
Описание фильма:
Фиксики — маленькие добрые человечки, которые живут в машинах и приборах и заботятся о технике. Но люди не должны знать о фиксиках! Это БОЛЬШОЙ СЕКРЕТ! Фиксики находят способ перемещаться по электрическим проводам. Теперь они смогут мгновенно починить любой прибор, где бы он ни был! И тут недоработанное изобретение попадает к озорнику Файеру. В руках маленького фиксика оно становится причиной больших проблем. Искры, взрывы, разрушения, взбесившаяся техника — город на грани катастрофы! Фиксикам почти чудом удаётся её предотвратить. Но как сохранить их БОЛЬШОЙ СЕКРЕТ?!

Технические данные файла:
❖ Качество: WEB-DLRip-AVC (Исх. WEB-DL 1080p)
❖ Формат: MKV
❖ Видео: 1024x552 (1.85:1), 24 fps, MPEG-4 AVC ~ 1 568 kbps (0.169 bit/pixel)
❖ Аудио: AC3, 48.0 KHz, 6 ch, 384 kbps
General
Unique ID : 203185526502729945525229238343613396072 (0x98DC1BE5D60598658E335C4015ADB468)
Complete name : X:x264Fiksiki Bolshoy sekret.[2017].WEB-DLRip-AVC.[Kaztorrents].mkv
Format : Matroska
Format version : Version 2
File size : 1.46 GiB
Duration : 1 h 17 min
Overall bit rate : 2 680 kb/s
Encoded date : UTC 2017-12-31 18:26:24
Writing application : mkvmerge v7.8.0 ('River Man') 32bit built on Apr 3 2015 12:11:22
Writing library : libebml v1.3.1 + libmatroska v1.4.2
Video
ID : 1
Format : AVC
Format/Info : Advanced Video Codec
Format profile : [email protected]
Format settings, CABAC : Yes
Format settings, ReFrames : 11 frames
Codec ID : V_MPEG4/ISO/AVC
Duration : 1 h 17 min
Bit rate : 2 294 kb/s
Width : 1 024 pixels
Height : 552 pixels
Display aspect ratio : 1.85:1
Frame rate mode : Constant
Frame rate : 24.000 FPS
Color space : YUV
Chroma subsampling : 4:2:0
Bit depth : 8 bits
Scan type : Progressive
Bits/(Pixel*Frame) : 0.169
Stream size : 1.22 GiB (84%)
Writing library : x264 core 146 r2538 121396c
Encoding settings : cabac=1 / ref=11 / deblock=1:-3:-3 / analyse=0x3:0x113 / me=umh / subme=11 / psy=1 / psy_rd=1.00:0.00 / mixed_ref=1 / me_range=48 / chroma_me=1 / trellis=2 / 8x8dct=1 / cqm=0 / deadzone=21,11 / fast_pskip=0 / chroma_qp_offset=-2 / threads=6 / lookahead_threads=1 / sliced_threads=0 / nr=0 / decimate=0 / interlaced=0 / bluray_compat=0 / constrained_intra=0 / bframes=11 / b_pyramid=2 / b_adapt=2 / b_bias=0 / direct=3 / weightb=1 / open_gop=0 / weightp=2 / keyint=240 / keyint_min=23 / scenecut=40 / intra_refresh=0 / rc_lookahead=40 / rc=2pass / mbtree=0 / bitrate=2294 / ratetol=1.0 / qcomp=0.60 / qpmin=0 / qpmax=69 / qpstep=4 / cplxblur=20.0 / qblur=0.5 / vbv_maxrate=50000 / vbv_bufsize=62500 / nal_hrd=none / filler=0 / ip_ratio=1.40 / pb_ratio=1.30 / aq=1:1.10
Default : Yes
Forced : No
Audio
ID : 2
Format : AC-3
Format/Info : Audio Coding 3
Mode extension : CM (complete main)
Format settings, Endianness : Big
Codec ID : A_AC3
Duration : 1 h 17 min
Bit rate mode : Constant
Bit rate : 384 kb/s
Channel(s) : 2 channels
Channel positions : Front: L R
Sampling rate : 48.0 kHz
Frame rate : 31.250 FPS (1536 spf)
Bit depth : 16 bits
Compression mode : Lossy
Stream size : 214 MiB (14%)
Default : Yes
Forced : No





   Похожие торренты   Торрент   Размер 
В этой теме нет новых непрочитанных сообщений. Фиксики: Большой секрет (2017) WEB-DLRip от MegaPeer | iTunes

2669 | 99

1.37 ГБ

В этой теме нет новых непрочитанных сообщений. Фиксики: Большой секрет (2017) WEB-DLRip-AVC от ExKinoRay | iTunes

534 | 25

746.16 МБ

В этой теме нет новых непрочитанных сообщений. Фиксики: Большой секрет (2017) WEB-DLRip от Scarabey | iTunes

2663 | 174

1.3 ГБ

В этой теме нет новых непрочитанных сообщений. Фиксики: Большой секрет (2017) WEB-DLRip от Generalfilm | КПК | iTunes

48 | 4

296.57 МБ

В этой теме нет новых непрочитанных сообщений. Фиксики: Большой секрет (2017) WEB-DL 1080p | iTunes

0 | 0

2.98 ГБ

В этой теме нет новых непрочитанных сообщений. Фиксики: Большой секрет (2017) WEB-DL 720p | iTunes

0 | 0

2.39 ГБ

В этой теме нет новых непрочитанных сообщений. Заложники (2017) WEB-DLRip от Kaztorrents | КПК | iTunes

0 | 0

394.92 МБ




Вы не можете начинать темы
Вы не можете отвечать на сообщения
Вы не можете редактировать свои сообщения
Вы не можете удалять свои сообщения
Вы не можете добавлять вложения

Перейти:  
Для Мосгорсуда, Роскомнадзора и рекламодателей: mosgorsud-torrent[собачка]yandex.ru
 Вход
ppkBB3cker v.2 © 2008-2014 @ PPK
[ Time : 0.051s | 18 Queries | GZIP : Off ]

cron