img image001 image001 image001 image001 image001 image001 image001 image001 image001 image001 image001 image001 image001 image001 image001

Planets Sun Sun Sun
Статистика раздачи
Автор: Nickolas3434 | Размер: 24.04 ГБ | Добавлен: 04 янв 2018
Раздают: 17    Качают: 4
Скачать торрент
Скачать торрент
Описание торрента

СообщениеДобавлено: 04 янв 2018 

Производство: США / DreamWorks Animation
Жанр: мультфильм, боевик, комедия, семейный
Режиссер: Дэвид Сорен
Продюсер: Marie Balland, Крис Финнегэн, Роб Леттерман
Актеры: Эд Хелмс, Кевин Харт, Ник Кролл, Томас Миддлдитч, Джордан Пил, Кристен Шаал, Ди Ди Решер, Брайан Посен, Дэвид Сорен, Мэл Родригез
Описание:
Гарольд и Джордж увлекаются изготовлением комиксов. Они придумали супергероя — Капитана Подштанника. Директор их школы мистер Крупп терпеть не может мальчишеских проказ, на которые горазды Гарольд и Джордж. Но у него пока нет доказательств того, что именно они были инициаторами многочисленных розыгрышей. Однако теперь они у него появились. Зануда Мелвин заснял, как Гарольд и Джордж перепрограммируют его изобретение, Турбо-унитаз, и превращают серьёзное мероприятие в развлечение для школьников. Крупп хочет наказать друзей. А тут ещё появляется профессор Пуперпопс, который хочет лишить человечество чувства юмора. Ему в этом помогает Мелвин и увеличенный до гигантских размеров Турбо-унитаз. Тогда Гарольд и Джордж превращают директора Круппа в Капитана Подштанника. Удастся ли друзьям остановить Пуперпопса? Сможет ли Крупп управлять школой в одних подштанниках?

Релиз от: HDRINVASION, BLUEBIRD
Продолжительность: 01:28:40
Качество: UHD BDRemux (HDR)
Перевод: Профессиональный (многоголосый, закадровый) (Лицензия BD EUR)
Субтитры: Английские, Русские, Украинские
Видео: HEVC/H.265, 3840x2160p, (16:9), 32.1 Mb/s, 23.976 fps
Аудио: DTS, 6 ch, 768 kbps - Русский
Аудио: AC3, 6 ch, 448 kbps - Украинский
Аудио: TrueHD-Atmos, 8 ch, 5335 kbps - Английский
General
Unique ID : 218617789236310521488326160287877999727 (0xA4784131D47809968FC330CF030EAC6F)
Complete name : CAPTAIN_UNDRPNTS_TFEM_BD_UHD_HDR_REMUX-BLUEBIRD.mkv
Format : Matroska
Format version : Version 4 / Version 2
File size : 24.0 GiB
Duration : 1 h 28 min
Overall bit rate mode : Variable
Overall bit rate : 38.8 Mb/s
Movie name : CAPTAIN_UNDRPNTS_TFEM_BD_UHD_HDR_REMUX-BLUEBIRD
Encoded date : UTC 2017-11-17 11:27:33
Writing application : mkvmerge v16.0.0 ('Protest') 64-bit
Writing library : libebml v1.3.5 + libmatroska v1.4.8
Cover : Yes
Attachments : cover.png
Video
ID : 1
Format : HEVC
Format/Info : High Efficiency Video Coding
Format profile : Main [email protected]@High
Codec ID : V_MPEGH/ISO/HEVC
Duration : 1 h 28 min
Bit rate : 32.1 Mb/s
Width : 3 840 pixels
Height : 2 160 pixels
Display aspect ratio : 16:9
Frame rate mode : Constant
Frame rate : 23.976 (24000/1001) FPS
Color space : YUV
Chroma subsampling : 4:2:0 (Type 2)
Bit depth : 10 bits
Bits/(Pixel*Frame) : 0.161
Stream size : 19.9 GiB (83%)
Title : CAPTAIN_UNDRPNTS_TFEM_BD_UHD_HDR_REMUX-BLUEBIRD
Default : Yes
Forced : No
Color range : Limited
Color primaries : BT.2020
Transfer characteristics : SMPTE ST 2084
Matrix coefficients : BT.2020 non-constant
Mastering display color primaries : R: x=0.680000 y=0.320000, G: x=0.265000 y=0.690000, B: x=0.150000 y=0.060000, White point: x=0.312700 y=0.329000
Mastering display luminance : min: 0.0050 cd/m2, max: 1000.0000 cd/m2
Audio #1
ID : 2
Format : DTS
Format/Info : Digital Theater Systems
Mode : 16
Format settings, Endianness : Big
Codec ID : A_DTS
Duration : 1 h 28 min
Bit rate mode : Constant
Bit rate : 768 kb/s
Channel(s) : 6 channels
Channel positions : Front: L C R, Side: L R, LFE
Sampling rate : 48.0 kHz
Frame rate : 93.750 FPS (512 SPF)
Bit depth : 24 bits
Compression mode : Lossy
Stream size : 487 MiB (2%)
Title : [MVO] DTS 5.1 @ 768 kbps
Language : Russian
Default : Yes
Forced : No
Audio #2
ID : 3
Format : AC-3
Format/Info : Audio Coding 3
Format settings, Endianness : Big
Codec ID : A_AC3
Duration : 1 h 28 min
Bit rate mode : Constant
Bit rate : 448 kb/s
Channel(s) : 6 channels
Channel positions : Front: L C R, Side: L R, LFE
Sampling rate : 48.0 kHz
Frame rate : 31.250 FPS (1536 SPF)
Bit depth : 16 bits
Compression mode : Lossy
Stream size : 284 MiB (1%)
Title : [DUB] DD 5.1 @ 448 kbps
Language : Ukrainian
Service kind : Complete Main
Default : No
Forced : No
Audio #3
ID : 4
Format : TrueHD
Format profile : TrueHD+Atmos / TrueHD
Codec ID : A_TRUEHD
Duration : 1 h 28 min
Bit rate mode : Variable
Bit rate : 5 335 kb/s
Maximum bit rate : 8 361 kb/s
Channel(s) : Object Based / 8 channels
Channel positions : Object Based / Front: L C R, Side: L R, Back: L R, LFE
Sampling rate : / 48.0 kHz
Frame rate : 1 200.000 FPS (40 SPF)
Compression mode : Lossless
Stream size : 3.30 GiB (14%)
Title : [ORIGINAL] ATMOS 7.1 @ 5975 kbps
Language : English
Default : No
Forced : No
Text #1
ID : 5
Format : PGS
Codec ID : S_HDMV/PGS
Codec ID/Info : Picture based subtitle format used on BDs/HD-DVDs
Duration : 1 h 27 min
Bit rate : 43.6 kb/s
Count of elements : 2962
Stream size : 27.3 MiB (0%)
Title : Full-length
Language : Russian
Default : No
Forced : No
Text #2
ID : 6
Format : PGS
Codec ID : S_HDMV/PGS
Codec ID/Info : Picture based subtitle format used on BDs/HD-DVDs
Duration : 1 h 27 min
Bit rate : 42.4 kb/s
Count of elements : 2962
Stream size : 26.5 MiB (0%)
Title : Full-length
Language : Ukrainian
Default : No
Forced : No
Text #3
ID : 7
Format : PGS
Codec ID : S_HDMV/PGS
Codec ID/Info : Picture based subtitle format used on BDs/HD-DVDs
Duration : 1 h 27 min
Bit rate : 61.6 kb/s
Count of elements : 4246
Stream size : 38.5 MiB (0%)
Title : Full-length
Language : English
Default : No
Forced : No
Menu
00:00:00.000 : en:Chapter 1
00:03:54.359 : en:Chapter 2
00:06:58.918 : en:Chapter 3
00:10:08.441 : en:Chapter 4
00:12:58.652 : en:Chapter 5
00:15:08.657 : en:Chapter 6
00:17:44.980 : en:Chapter 7
00:20:42.783 : en:Chapter 8
00:23:45.257 : en:Chapter 9
00:25:44.668 : en:Chapter 10
00:29:26.264 : en:Chapter 11
00:33:55.658 : en:Chapter 12
00:38:24.176 : en:Chapter 13
00:42:10.194 : en:Chapter 14
00:46:12.060 : en:Chapter 15
00:52:17.801 : en:Chapter 16
00:55:02.841 : en:Chapter 17
00:57:37.620 : en:Chapter 18
01:00:57.445 : en:Chapter 19
01:04:30.116 : en:Chapter 20
01:08:24.934 : en:Chapter 21
01:11:42.089 : en:Chapter 22
01:15:44.373 : en:Chapter 23
01:19:03.321 : en:Chapter 24

Скриншоты:



   Похожие торренты   Торрент   Размер 
В этой теме нет новых непрочитанных сообщений. Капитан Подштанник: Первый эпический фильм / Captain Underpants: The First Epic Movie (2017) BDRip от Seven | Лицензия

17 | 2

2.19 ГБ

В этой теме нет новых непрочитанных сообщений. Капитан Подштанник: Первый эпический фильм / Captain Underpants: The First Epic Movie (2017) BDRip от MegaPeer | Лицензия

1160 | 21

1.46 ГБ

В этой теме нет новых непрочитанных сообщений. Капитан Подштанник: Первый эпический фильм / Captain Underpants: The First Epic Movie (2017) HDRip от MegaPeer | Лицензия

24 | 3

751.14 МБ

В этой теме нет новых непрочитанных сообщений. Капитан Подштанник: Первый эпический фильм / Captain Underpants: The First Epic Movie (2017) HDRip от Kaztorrents | КПК | Лицензия

5 | 2

337.06 МБ

В этой теме нет новых непрочитанных сообщений. Капитан Подштанник: Первый эпический фильм / Captain Underpants: The First Epic Movie (2017) BDRip от HQCLUB | P | Лицензия

29 | 5

1.45 ГБ

В этой теме нет новых непрочитанных сообщений. Капитан Подштанник: Первый эпический фильм / Captain Underpants: The First Epic Movie (2017) BDRip от ExKinoRay | Лицензия

60 | 4

1.46 ГБ

В этой теме нет новых непрочитанных сообщений. Капитан Подштанник: Первый эпический фильм / Captain Underpants: The First Epic Movie (2017) HDRip | L

26 | 6

1.37 ГБ




Вы не можете начинать темы
Вы не можете отвечать на сообщения
Вы не можете редактировать свои сообщения
Вы не можете удалять свои сообщения
Вы не можете добавлять вложения

Перейти:  
Для Мосгорсуда, Роскомнадзора и рекламодателей: mosgorsud-torrent[собачка]yandex.ru
 Вход
ppkBB3cker v.2 © 2008-2014 @ PPK
[ Time : 0.038s | 19 Queries | GZIP : Off ]

cron