img image001 image001 image001 image001 image001 image001 image001 image001 image001 image001 image001 image001 image001 image001 image001

Planets Sun Sun Sun
Статистика раздачи
Автор: Nickolas3434 | Размер: 1.94 ГБ | Добавлен: 04 янв 2018
Раздают: 11    Качают: 2
Скачать торрент
Скачать торрент
Описание торрента

СообщениеДобавлено: 04 янв 2018 


«Вечная классика для нового поколения»


Название: Знаешь, как я тебя люблю
Оригинальное название: Guess How Much I Love You: The Adventures of Little Nutbrown Hare
Год выхода: 2012-2015
Жанр: Мультфильм, семейный
Режиссер: Стиви Вэлланс
В ролях: Стюарт Аллан, Элли Карлтон, Мэттью Уэйн, Николас Ройе, Михаэла Дин, Анжелика Перрен, Кай Болдуин
О фильме:
Познакомьтесь с Маленьким Зайчонком и его друзьями, чтобы вместе с ними ощутить все те радости, какими вас способны одарить четыре времени года.

Страна: США, Австралия, Великобритания
Продолжительность: 41 x ~00:11:21
Перевод: Профессиональный (дублированный)JimJam
Файл
Формат: MP4
Видео кодек: H.264
Качество: SATRip
Видео: 640х356, 25 fps, ~484 kbps avg
Звук: 44.1 kHz, AAC, 2/0 (L,R) ch, 128 kb/s

1. Аромат весны
2. Взросление
3. Лунный танец
4. Цветение
5. В поисках скоровищ
6. Цветочная поляна
7. Можно ли дотянуться до звезд
8. Следуй за мной
9. Гнездо
10. Игра в прятки
11. Уют в доме
12. Вдали от дома
13. Дождливые дни
14. Следуй за муравьями
15. Голубое чудо
16. Нет места лучше дома
17. Заячий хвост
18. Любимая вещь
19. Куда ведет река
20. Тень листьев
21. Большой как ты
22. Сказка на ночь
23. Мир глазами зайчонка
24. Вкус заката
25. Побыть кем-то другим
26. Сильная гроза
27. Вкусное лето
28. Осенняя пора
29. Четыре явления природы
30. Каштаны
31. Как звучит луна
32. Я хочу летать
33. Я обещаю
34. Тыквенные грядки
35. Всё верх дном
36. Игры с тенью
37. Свист ветра
38. Большое яблоко
39. Сюрприз
40. Что нашел, то моё
41. Снежный покров


General
Complete name : C:UsersAcerDesktopЗНАЕШЬ КАК Я ТЕБЯ ЛЮБЛЮ Guess How Much I Love You8. Следуй за мной.mp4
Format : MPEG-4
Format profile : Base Media
Codec ID : isom (isom/iso2/avc1/mp41)
File size : 47.3 MiB
Duration : 11 min 1 s
Overall bit rate : 599 kb/s
Writing application : Lavf55.48.100
Video
ID : 1
Format : AVC
Format/Info : Advanced Video Codec
Format profile : [email protected]
Format settings, CABAC : No
Format settings, RefFrames : 3 frames
Codec ID : avc1
Codec ID/Info : Advanced Video Coding
Duration : 11 min 1 s
Bit rate : 484 kb/s
Width : 640 pixels
Height : 356 pixels
Display aspect ratio : 16:9
Frame rate mode : Constant
Frame rate : 25.000 FPS
Color space : YUV
Chroma subsampling : 4:2:0
Bit depth : 8 bits
Scan type : Progressive
Bits/(Pixel*Frame) : 0.085
Stream size : 36.8 MiB (78%)
Writing library : x264 core 142
Encoding settings : cabac=0 / ref=3 / deblock=1:0:0 / analyse=0x1:0x111 / me=hex / subme=7 / psy=1 / psy_rd=1.00:0.00 / mixed_ref=1 / me_range=16 / chroma_me=1 / trellis=1 / 8x8dct=0 / cqm=0 / deadzone=21,11 / fast_pskip=1 / chroma_qp_offset=-2 / threads=6 / lookahead_threads=1 / sliced_threads=0 / nr=0 / decimate=1 / interlaced=0 / bluray_compat=0 / constrained_intra=0 / bframes=0 / weightp=0 / keyint=25 / keyint_min=2 / scenecut=40 / intra_refresh=0 / rc_lookahead=25 / rc=abr / mbtree=1 / bitrate=484 / ratetol=1.0 / qcomp=0.60 / qpmin=0 / qpmax=69 / qpstep=4 / ip_ratio=1.40 / aq=1:1.00
Audio
ID : 2
Format : AAC
Format/Info : Advanced Audio Codec
Format profile : LC
Codec ID : 40
Duration : 11 min 1 s
Duration_LastFrame : -4 ms
Bit rate mode : Constant
Bit rate : 128 kb/s
Channel(s) : 2 channels
Channel positions : Front: L R
Sampling rate : 44.1 kHz
Frame rate : 43.066 FPS (1024 SPF)
Compression mode : Lossy
Stream size : 10.1 MiB (21%)
Default : Yes
Alternate group : 1





   Похожие торренты   Торрент   Размер 
В этой теме нет новых непрочитанных сообщений. Я люблю тебя / I am in love (2010) SATRip от Files-x

2 | 3

2.05 ГБ

В этой теме нет новых непрочитанных сообщений. Я люблю Новый год / I love New Year (2015) HDTVRip | L2

1002 | 32

2.16 ГБ

В этой теме нет новых непрочитанных сообщений. Люблю себя, или тебя? / Love Myself or You? [s01] (2015) HDTVRip 720p от KrisTee

10 | 3

23.94 ГБ

В этой теме нет новых непрочитанных сообщений. Каждый день я тебя люблю / Everyday I Love You (2015) WEBRip 720p

13 | 3

1.08 ГБ

В этой теме нет новых непрочитанных сообщений. Nancy Wilson - Guess Who I Saw Today. Nancy Wilson Sings Songs Of Lost Love (2005) MP3 от BestSound ExKinoRay

0 | 3

101.71 МБ

В этой теме нет новых непрочитанных сообщений. Люблю, потому что люблю (2012) IPTVRip от Files-x

48 | 9

1.31 ГБ

В этой теме нет новых непрочитанных сообщений. Гость на Рождество / Guess Who's Coming to Christmas (2013) SATRip

311 | 18

769.7 МБ




Вы не можете начинать темы
Вы не можете отвечать на сообщения
Вы не можете редактировать свои сообщения
Вы не можете удалять свои сообщения
Вы не можете добавлять вложения

Перейти:  
Для Мосгорсуда, Роскомнадзора и рекламодателей: mosgorsud-torrent[собачка]yandex.ru
 Вход
ppkBB3cker v.2 © 2008-2014 @ PPK
[ Time : 0.057s | 17 Queries | GZIP : Off ]