img image001 image001 image001 image001 image001 image001 image001 image001 image001 image001 image001 image001 image001 image001 image001

Planets Sun Sun Sun
Статистика раздачи
Автор: Nickolas3434 | Размер: 746.55 МБ | Добавлен: 06 янв 2018
Раздают: 36    Качают: 3
Скачать торрент
Скачать торрент
Описание торрента

СообщениеДобавлено: 06 янв 2018 

Информация о фильме
Название: Микки: И снова под Рождество
Оригинальное название: Mickey's Twice Upon a Christmas
Год выхода: 2004
Жанр: Мультфильм, фэнтези, комедия, семейный
Режиссер: Кэрол Холлидэй, Мэттью О’Каллаган, Тереза Петтенджилл
В ролях: Уэйн Оллвэйн, Тони Ансельмо, Джефф Беннетт, Джим Каммингс, Билл Фармер, Тресс МакНилл, Джейсон Мэрсден, Чак МакКанн, Клайв Ревилл, Расси Тейлор
Роли дублировали: Максим Сергеев, Андрей Тенетко, Михаил Вассербаум, Снежина Копрова, Владислав Галкин
О фильме :
Приходите в гости к Санта Клаусу, Микки Маусу и другим диснеевским героям на праздник и посмотрите, как они встречают Рождество. К примеру, старина Дональд всеми силами пробует противостоять празднику, в то время как Микки и Плуто веселятся от всего сердца. Эта неповторимая коллекция Рождственских Историй поможет взглянуть по новому на ваших любимых диснеевских героев.

Выпущено: США
Студия: DisneyToon Studios,Walt Disney Pictures
Продолжительность: 01:07:43
Перевод: Профессиональный (полное дублирование)
Файл
Формат: MKV
Качество: WEB-DLRip-AVC
Видео: MPEG-4 AVC, 784x440, ~ 1463 Кбит/с
Аудио: AAC-LC, 2 ch, ~ 76 Кбит/с
Субтитры: русские (full, forced), английские
Общее
Уникальный идентификатор : 215222110145948050324888411501668689677 (0xA1EA454A22088030AF74B7CE3525670D)
Полное имя : D:MOVIESMickeys Twice Upon a Christmas.2004.ExKinoRay.mkv
Формат : Matroska
Версия формата : Version 4 / Version 2
Размер файла : 747 Мбайт
Продолжительность : 1 ч. 7 м.
Общий поток : 1541 Кбит/сек
Дата кодирования : UTC 2018-01-04 05:49:46
Программа кодирования : mkvmerge v15.0.0 ('Duel with the Devil') 64-bit
Библиотека кодирования : libebml v1.3.5 + libmatroska v1.4.5
Видео
Идентификатор : 1
Формат : AVC
Формат/Информация : Advanced Video Codec
Профиль формата : [email protected]
Параметр CABAC формата : Да
Параметр RefFrames формата : 10 кадров
Идентификатор кодека : V_MPEG4/ISO/AVC
Продолжительность : 1 ч. 7 м.
Битрейт : 1463 Кбит/сек
Ширина : 784 пикселя
Высота : 440 пикселей
Соотношение сторон : 16:9
Режим частоты кадров : Постоянный
Частота кадров : 23,976 (24000/1001) кадра/сек
Цветовое пространство : YUV
Субдискретизация насыщенности : 4:2:0
Битовая глубина : 8 бит
Тип развёртки : Прогрессивная
Бит/(Пиксели*Кадры) : 0.177
Размер потока : 709 Мбайт (95%)
Библиотека кодирования : x264 core 152 r2851kMod ba24899
Настройки программы : cabac=1 / ref=10 / deblock=1:-2:-2 / analyse=0x3:0x133 / me=umh / subme=11 / psy=1 / fade_compensate=0.00 / psy_rd=1.00:0.10 / mixed_ref=1 / me_range=32 / chroma_me=1 / trellis=2 / 8x8dct=1 / cqm=0 / deadzone=21,11 / fast_pskip=0 / chroma_qp_offset=-3 / threads=6 / lookahead_threads=1 / sliced_threads=0 / nr=0 / decimate=0 / interlaced=0 / bluray_compat=0 / constrained_intra=0 / bframes=10 / b_pyramid=2 / b_adapt=2 / b_bias=0 / direct=3 / weightb=1 / open_gop=0 / weightp=2 / keyint=240 / keyint_min=23 / scenecut=40 / intra_refresh=0 / rc_lookahead=40 / rc=2pass / mbtree=1 / bitrate=1463 / ratetol=1.0 / qcomp=0.60 / qpmin=0 / qpmax=69 / qpstep=4 / cplxblur=20.0 / qblur=0.5 / vbv_maxrate=50000 / vbv_bufsize=62500 / nal_hrd=none / filler=0 / ip_ratio=1.40 / aq=3:1.00
Default : Да
Forced : Нет
Аудио
Идентификатор : 2
Формат : AAC
Формат/Информация : Advanced Audio Codec
Профиль формата : LC
Идентификатор кодека : A_AAC
Продолжительность : 1 ч. 7 м.
Битрейт : 76,0 Кбит/сек
Каналы : 2 канала
Расположение каналов : Front: L R
Частота : 48,0 КГц
Частота кадров : 46,875 кадров/сек (1024 SPF)
Метод сжатия : С потерями
Задержка видео : 9 мс.
Размер потока : 36,6 Мбайт (5%)
Язык : Russian
Default : Да
Forced : Нет
Текст #1
Идентификатор : 3
Формат : UTF-8
Идентификатор кодека : S_TEXT/UTF8
Идентификатор кодека/Информация : UTF-8 Plain Text
Продолжительность : 50 м. 41 с.
Битрейт : 1 бит/сек
ElementCount : 13
Размер потока : 449 байт (0%)
Заголовок : Rus Sub - forced
Язык : Russian
Default : Да
Forced : Да
Текст #2
Идентификатор : 4
Формат : UTF-8
Идентификатор кодека : S_TEXT/UTF8
Идентификатор кодека/Информация : UTF-8 Plain Text
Продолжительность : 1 ч. 2 м.
Битрейт : 82 бит/сек
ElementCount : 793
Размер потока : 37,8 Кбайт (0%)
Заголовок : Rus Sub - full
Язык : Russian
Default : Нет
Forced : Нет
Текст #3
Идентификатор : 5
Формат : UTF-8
Идентификатор кодека : S_TEXT/UTF8
Идентификатор кодека/Информация : UTF-8 Plain Text
Продолжительность : 1 ч. 4 м.
Битрейт : 55 бит/сек
ElementCount : 966
Размер потока : 25,9 Кбайт (0%)
Заголовок : Eng Sub - full
Язык : English
Default : Нет
Forced : Нет
Меню
00:00:00.000 : en:1. Main Title
00:00:48.000 : en:2. Belles on Ice
00:08:19.000 : en:3. Christmas: Impossible
00:27:10.000 : en:4. Christmas Maximus
00:33:10.000 : en:5. Donald's Gift
00:41:30.000 : en:6. Mickey's Dog-Gone Christmas
01:00:00.000 : en:7. End Credits


Релиз от:



   Похожие торренты   Торрент   Размер 
В этой теме нет новых непрочитанных сообщений. Микки: Однажды под Рождество / Mickey's Once Upon a Christmas (1999) WEB-DLRip от Deadmauvlad | D | Лицензия

162 | 43

746.39 МБ

В этой теме нет новых непрочитанных сообщений. Микки: Однажды под Рождество / Mickey's Once Upon a Christmas (1999) DVDRip

63 | 3

1.37 ГБ

В этой теме нет новых непрочитанных сообщений. Микки: Однажды под Рождество / Mickey's Once Upon a Christmas (1999) WEB-DL 720p от HDCLUB

68 | 32

2.16 ГБ

В этой теме нет новых непрочитанных сообщений. Микки. Однажды под рождество / Mickey's Once Upon a Christmas (1999) HDRip от Koenig | D

9 | 0

1.09 ГБ

В этой теме нет новых непрочитанных сообщений. Микки: Однажды под Рождество / Mickey's Once Upon a Christmas (1999) BDRip 720 от Deadmauvlad | D

231 | 10

2.36 ГБ

В этой теме нет новых непрочитанных сообщений. Веселое Рождество у Микки / Mickey's Christmas Carol (1983) DVDRip

32 | 6

375.61 МБ

В этой теме нет новых непрочитанных сообщений. Волшебное Рождество у Микки: Запертые снегом в мышином доме / Mickey's Magical Christmas: Snowed in at the House of Mouse (2001) DVD5

7 | 5

3.47 ГБ




Вы не можете начинать темы
Вы не можете отвечать на сообщения
Вы не можете редактировать свои сообщения
Вы не можете удалять свои сообщения
Вы не можете добавлять вложения

Перейти:  
Для Мосгорсуда, Роскомнадзора и рекламодателей: mosgorsud-torrent[собачка]yandex.ru
 Вход
ppkBB3cker v.2 © 2008-2014 @ PPK
[ Time : 3.211s | 18 Queries | GZIP : Off ]

cron