img image001 image001 image001 image001 image001 image001 image001 image001 image001 image001 image001 image001 image001 image001 image001

Planets Sun Sun Sun
Статистика раздачи
Автор: Nickolas3434 | Размер: 745.45 МБ | Добавлен: 06 янв 2018
Раздают: 105    Качают: 9
Скачать торрент
Скачать торрент
Описание торрента

СообщениеДобавлено: 06 янв 2018 

Информация о фильме
Название: Дом злодеев. Мышиный дом
Оригинальное название: Mickey's House of Villains
Год выхода: 2001
Жанр: Мультфильм, детский
Режиссер: Джэми Митчел, Тони Крэйг, Роберт Ганнавей
Роли озвучивали: Уэйн Оллвэйн, Тони Ансельмо, Джефф Беннетт, Сьюзан Блэйксли, Кори Бертон, Пэт Кэрролл, Джон Клиз, Джим Каммингс, Билл Фармер, Джон Фидлер
Роли дублировали: Максим Сергеев, Константин Петров, Снежина Копрова, Елена Павловская, Алексей Гурьев
О фильме :
Банда негодяев во главе с Джафаром пытается захватить домик Микки Мауса и превратить его в дом злодеев. Но верные друзья Микки — Дональд Дак, Гуффи, Плуто — как всегда рядом и готовы сражаться за торжество справедливости. Остановить и победить злодеев им помогают взаимовыручка, смекалка, чувство юмора и добрые сердца…

Страна: США
Студия: Walt Disney Pictures
Продолжительность: ~ 01:07:58
Перевод: Профессиональный (полное дублирование)
Файл
Формат: MKV
Качество: WEB-DLRip-AVC
Видео: MPEG-4 AVC, 784x460, ~ 1454 Кбит/с
Аудио: AAC-LC, 2 ch, ~ 76 Кбит/с
Общее
Уникальный идентификатор : 234885869558405094097929586365767599522 (0xB0B55F7AEF7C14EFA83609A8B043C5A2)
Полное имя : D:MOVIESMickey's House of Villains.2001.ExKinoRay.mkv
Формат : Matroska
Версия формата : Version 4 / Version 2
Размер файла : 745 Мбайт
Продолжительность : 1 ч. 8 м.
Общий поток : 1531 Кбит/сек
Дата кодирования : UTC 2018-01-04 20:35:15
Программа кодирования : mkvmerge v15.0.0 ('Duel with the Devil') 64-bit
Библиотека кодирования : libebml v1.3.5 + libmatroska v1.4.5
Видео
Идентификатор : 1
Формат : AVC
Формат/Информация : Advanced Video Codec
Профиль формата : [email protected]
Параметр CABAC формата : Да
Параметр RefFrames формата : 10 кадров
Идентификатор кодека : V_MPEG4/ISO/AVC
Продолжительность : 1 ч. 8 м.
Битрейт : 1454 Кбит/сек
Ширина : 784 пикселя
Высота : 460 пикселей
Соотношение сторон : 1,704
Режим частоты кадров : Постоянный
Частота кадров : 23,976 (24000/1001) кадра/сек
Цветовое пространство : YUV
Субдискретизация насыщенности : 4:2:0
Битовая глубина : 8 бит
Тип развёртки : Прогрессивная
Бит/(Пиксели*Кадры) : 0.168
Размер потока : 707 Мбайт (95%)
Библиотека кодирования : x264 core 152 r2851kMod ba24899
Настройки программы : cabac=1 / ref=10 / deblock=1:-3:-3 / analyse=0x3:0x133 / me=umh / subme=11 / psy=1 / fade_compensate=0.00 / psy_rd=1.00:0.12 / mixed_ref=1 / me_range=32 / chroma_me=1 / trellis=2 / 8x8dct=1 / cqm=0 / deadzone=21,11 / fast_pskip=0 / chroma_qp_offset=-3 / threads=6 / lookahead_threads=1 / sliced_threads=0 / nr=0 / decimate=0 / interlaced=0 / bluray_compat=0 / constrained_intra=0 / bframes=10 / b_pyramid=2 / b_adapt=2 / b_bias=0 / direct=3 / weightb=1 / open_gop=0 / weightp=2 / keyint=240 / keyint_min=23 / scenecut=40 / intra_refresh=0 / rc_lookahead=40 / rc=2pass / mbtree=1 / bitrate=1454 / ratetol=1.0 / qcomp=0.60 / qpmin=0 / qpmax=69 / qpstep=4 / cplxblur=20.0 / qblur=0.5 / vbv_maxrate=50000 / vbv_bufsize=62500 / nal_hrd=none / filler=0 / ip_ratio=1.40 / aq=3:1.00
Default : Да
Forced : Нет
Аудио
Идентификатор : 2
Формат : AAC
Формат/Информация : Advanced Audio Codec
Профиль формата : LC
Идентификатор кодека : A_AAC
Продолжительность : 1 ч. 8 м.
Битрейт : 76,0 Кбит/сек
Каналы : 2 канала
Расположение каналов : Front: L R
Частота : 48,0 КГц
Частота кадров : 46,875 кадров/сек (1024 SPF)
Метод сжатия : С потерями
Задержка видео : 9 мс.
Размер потока : 37,0 Мбайт (5%)
Язык : Russian
Default : Да
Forced : Нет
Меню
00:00:00.000 : en:Opening Credits/Trick or Treat
00:10:04.000 : en:Mickey's Mechanical House
00:17:42.000 : en:How to Haunt a House
00:23:53.000 : en:Lonesome Ghosts
00:32:24.000 : en:Dance of the Goofys
00:38:34.000 : en:Donald Duck and the Gorilla
00:45:22.000 : en:"It's Our House Now"
00:48:07.000 : en:Donald's Halloween Scare
00:55:26.000 : en:Hansel & Gretel
01:01:59.000 : en:Mickey Saves the House/End Credits


Релиз от:



   Похожие торренты   Торрент   Размер 
В этой теме нет новых непрочитанных сообщений. Мышиный дом, или дом злодеев / Mickey's House of Villains (2002) DVDRip-AVC от Тorrent-Хzona

69 | 5

1.04 ГБ

В этой теме нет новых непрочитанных сообщений. Волшебное Рождество у Микки: Запертые снегом в мышином доме / Mickey's Magical Christmas: Snowed in at the House of Mouse (2001) DVDRip

39 | 7

1.37 ГБ

В этой теме нет новых непрочитанных сообщений. Волшебное Рождество у Микки: Запертые снегом в мышином доме / Mickey's Magical Christmas: Snowed in at the House of Mouse (2001) DVD5

7 | 5

3.47 ГБ

В этой теме нет новых непрочитанных сообщений. Микки: И снова под Рождество / Mickey's Twice Upon a Christmas (2004) WEB-DLRip-AVC от ExKinoRay | D

36 | 3

746.55 МБ

В этой теме нет новых непрочитанных сообщений. BBC: Наедине с природой: Гиены герои или злодеи / BBC: Hyenas herOes or ViLLains [39 из 67] (2004) SATRip от ExKinoRay

1 | 2

496.58 МБ

В этой теме нет новых непрочитанных сообщений. Щелкунчик и мышиный король (2004) DVDRip от ExKinoRay

134 | 11

1.37 ГБ

В этой теме нет новых непрочитанных сообщений. Клуб Микки Мауса: Удивительные Истории / Mickey Mouse Clubhouse: Mickey's Storybook Surprises (2006) DVD5 от Youtracker | D | Сжатый

4 | 3

4.21 ГБ




Вы не можете начинать темы
Вы не можете отвечать на сообщения
Вы не можете редактировать свои сообщения
Вы не можете удалять свои сообщения
Вы не можете добавлять вложения

Перейти:  
Для Мосгорсуда, Роскомнадзора и рекламодателей: mosgorsud-torrent[собачка]yandex.ru
 Вход
ppkBB3cker v.2 © 2008-2014 @ PPK
[ Time : 0.032s | 18 Queries | GZIP : Off ]

cron