img image001 image001 image001 image001 image001 image001 image001 image001 image001 image001 image001 image001 image001 image001 image001

Planets Sun Sun Sun
Статистика раздачи
Автор: Nickolas3434 | Размер: 1.08 ГБ | Добавлен: 08 янв 2018
Раздают: 27    Качают: 7
Скачать торрент
Скачать торрент
Описание торрента

СообщениеДобавлено: 08 янв 2018 


Мы "В КОНТАКТЕ"


Страна: СССР, Россия
Производство: Союзмультфильм
Жанр: мультфильм, короткометражка
Год выпуска: 1959-1992
Продолжительность: (01:22:36) 00:19:29, 00:09:25, 00:09:26, 00:09:40, 00:24:49, 00:09:47
Перевод: не требуется
Оригинальная аудиодорожка: русский
Cубтитры: нет
Режиссер: Лев Атаманов, Геннадий Сокольский, Галина Баринова, Сергей Олифиренко, Александр Мазаев
Описание:
Похитители красок (1959) Музыкальный фильм о торжестве ярких красок над черными красками, которые стремились перекрасить весь мир в черный цвет. Действие фильма происходит в детском магазине. Его герои — тюбики с красками и игрушки.
Ивашка из Дворца пионеров (1981) У Бабы Яги именины, приглашены гости, которых она хочет угостить чем-то вкусным. Как водится, посылает она гусей-лебедей за упитанным мальчиком, которым оказывается Уфимцев Ваня из Дворца пионеров.
Шурале (1987) По мотивам одноименной сказки татарского поэта Габдуллы Тукая.
Уважаемый леший (1988) Мультфильм, близкий к цирковому представлению, где в роли клоунов выступают персонажи русских народных сказок: Баба-Яга, Леший и Заяц.
Маленькая колдунья (1991) В праздник на волшебной горе Блоксберг собираются все ведьмы и колдуют. И маленькой колдунье Мако тоже хочется на бал, но ее не пускает туда старая тетка Румпумпель — она хочет сделать Мако такой же злой и завистливой, как все ведьмы. Но Мако дружит с вороном Абраксасом, который учит ее делать добро. И вот маленькая колдунья вместо того, чтобы вредить людям начинает помогать им...
Глаша и Кикимора (1992) Не послушалась Глаша родителей, пустила в дом бабку, а это и не бабка была вовсе оказывается, а кикимора.






Исходник: DVD5 R5
Качество: DVDRip
Формат: AVI
Видео: 688x512 (4:3), 25 fps, XviD ~ 1679 kbps avg, 0.191 bit/pixel
Аудио: 48 kHz, Dolby Digital AC3 2,0, 192 kbps
Общее
Полное имя : Lukomore.Sbornik.multfilmov.DVDRip_[New-team]_by_AVP_Studio(1959) Похитители красок.avi
Формат : AVI
Формат/Информация : Audio Video Interleave
Размер файла : 262 Мбайт
Продолжительность : 19 м. 28 с.
Общий поток : 1881 Кбит/сек
Программа кодирования : VirtualDubMod 1.5.10.3 | www.virtualdub-fr.org || (build 2550/release)
Библиотека кодирования : VirtualDubMod build 2550/release
Видео
Идентификатор : 0
Формат : MPEG-4 Visual
Профиль формата : Advanced [email protected]
Настройки формата : BVOP1 / Custom Matrix
Параметр BVOP формата : 1
Параметр QPel формата : Нет
Параметр GMC формата : Без точки перехода
Параметр матрицы формата : Выборочная
Идентификатор кодека : XVID
Идентификатор кодека/Подсказка : XviD
Продолжительность : 19 м. 28 с.
Битрейт : 1679 Кбит/сек
Ширина : 688 пикселей
Высота : 512 пикселей
Соотношение сторон : 4:3
Частота кадров : 25,000 кадров/сек
Цветовое пространство : YUV
Субдискретизация насыщенности : 4:2:0
Битовая глубина : 8 бит
Тип развёртки : Прогрессивная
Метод сжатия : С потерями
Бит/(Пиксели*Кадры) : 0.191
Размер потока : 234 Мбайт (89%)
Библиотека кодирования : XviD 73
Аудио
Идентификатор : 1
Формат : AC-3
Формат/Информация : Audio Coding 3
Идентификатор кодека : 2000
Продолжительность : 19 м. 28 с.
Вид битрейта : Постоянный
Битрейт : 192 Кбит/сек
Каналы : 2 канала
Расположение каналов : Front: L R
Частота : 48,0 КГц
Частота кадров : 31,250 кадров/сек (1536 SPF)
Битовая глубина : 16 бит
Метод сжатия : С потерями
Размер потока : 26,7 Мбайт (10%)
Выравнивание : Разделение по промежуткам
Продолжительность промежутка : 40 мс. (1,00 видеокадр)
Время предзагрузки промежутка : 500 мс





   Похожие торренты   Торрент   Размер 
В этой теме нет новых непрочитанных сообщений. Лукоморье. Сборник мультфильмов (1959-1992) DVDRip-AVC от New-Team

86 | 10

1.09 ГБ

В этой теме нет новых непрочитанных сообщений. 38 попугаев / Сборник мультфильмов (1967-1992) DVDRip

107 | 24

2.74 ГБ

В этой теме нет новых непрочитанных сообщений. Машенька. Сборник мультфильмов (1955-1992) DVDRip от Torrent-Xzona

7 | 8

749.79 МБ

В этой теме нет новых непрочитанных сообщений. Сборник мультфильмов Леонида Кощеникова - Полная коллекция (1972-1992) DVDRip

40 | 12

5.13 ГБ

В этой теме нет новых непрочитанных сообщений. Чип и Дейл - сборник мультфильмов (1947-1992) DVDRip-AVC, SATRip-AVC от Egorijj.Alien | КПК

266 | 96

7.07 ГБ

В этой теме нет новых непрочитанных сообщений. Сборник мультфильмов Давида Черкасского - Полная коллекция (1969-1992) DVDRip

176 | 42

5.39 ГБ

В этой теме нет новых непрочитанных сообщений. Сборник мультфильмов Юрия Трофимова - Полная коллекция (1972-1992) DVDRip

44 | 129

4.61 ГБ




Вы не можете начинать темы
Вы не можете отвечать на сообщения
Вы не можете редактировать свои сообщения
Вы не можете удалять свои сообщения
Вы не можете добавлять вложения

Перейти:  
Для Мосгорсуда, Роскомнадзора и рекламодателей: mosgorsud-torrent[собачка]yandex.ru
 Вход
ppkBB3cker v.2 © 2008-2014 @ PPK
[ Time : 0.049s | 18 Queries | GZIP : Off ]

cron