img image001 image001 image001 image001 image001 image001 image001 image001 image001 image001 image001 image001 image001 image001 image001

Planets Sun Sun Sun
Статистика раздачи
Автор: Nickolas3434 | Размер: 1.09 ГБ | Добавлен: 08 янв 2018
Раздают: 86    Качают: 10
Скачать торрент
Скачать торрент
Описание торрента

СообщениеДобавлено: 08 янв 2018 


Мы "В КОНТАКТЕ"


Страна: СССР, Россия
Производство: Союзмультфильм
Жанр: мультфильм, короткометражка
Год выпуска: 1959-1992
Продолжительность: (01:22:36) 00:19:29, 00:09:25, 00:09:26, 00:09:40, 00:24:49, 00:09:47
Перевод: не требуется
Оригинальная аудиодорожка: русский
Cубтитры: нет
Режиссер: Лев Атаманов, Геннадий Сокольский, Галина Баринова, Сергей Олифиренко, Александр Мазаев
Описание:
Похитители красок (1959) Музыкальный фильм о торжестве ярких красок над черными красками, которые стремились перекрасить весь мир в черный цвет. Действие фильма происходит в детском магазине. Его герои — тюбики с красками и игрушки.
Ивашка из Дворца пионеров (1981) У Бабы Яги именины, приглашены гости, которых она хочет угостить чем-то вкусным. Как водится, посылает она гусей-лебедей за упитанным мальчиком, которым оказывается Уфимцев Ваня из Дворца пионеров.
Шурале (1987) По мотивам одноименной сказки татарского поэта Габдуллы Тукая.
Уважаемый леший (1988) Мультфильм, близкий к цирковому представлению, где в роли клоунов выступают персонажи русских народных сказок: Баба-Яга, Леший и Заяц.
Маленькая колдунья (1991) В праздник на волшебной горе Блоксберг собираются все ведьмы и колдуют. И маленькой колдунье Мако тоже хочется на бал, но ее не пускает туда старая тетка Румпумпель — она хочет сделать Мако такой же злой и завистливой, как все ведьмы. Но Мако дружит с вороном Абраксасом, который учит ее делать добро. И вот маленькая колдунья вместо того, чтобы вредить людям начинает помогать им...
Глаша и Кикимора (1992) Не послушалась Глаша родителей, пустила в дом бабку, а это и не бабка была вовсе оказывается, а кикимора.






Исходник: DVD5 R5
Качество: DVDRip-AVC
Формат: MKV
Видео: 696->760x570 (4:3), 25 fps, H264 ~ 1694 kbps avg, 0.171 bit/pixel
Аудио: 48 kHz, Dolby Digital AC3 2,0, 192 kbps
Общее
Полное имя : Lukomore.Sbornik.multfilmov.DVDRip-AVC_[New-team]_by_AVP_Studio(1959) Похитители красок.mkv
Формат : Matroska
Версия формата : Version 2
Размер файла : 263 Мбайт
Продолжительность : 19 м. 28 с.
Общий поток : 1888 Кбит/сек
Дата кодирования : UTC 2018-01-05 12:11:05
Программа кодирования : mkvmerge v6.1.0 ('Old Devil') built on Mar 4 2013 09:10:42
Библиотека кодирования : libebml v1.3.0 + libmatroska v1.4.0
Видео
Идентификатор : 1
Формат : AVC
Формат/Информация : Advanced Video Codec
Профиль формата : [email protected]
Настройки формата : CABAC / 10 Ref Frames
Параметр CABAC формата : Да
Параметр RefFrames формата : 10 кадров
Идентификатор кодека : V_MPEG4/ISO/AVC
Продолжительность : 19 м. 28 с.
Битрейт : 1694 Кбит/сек
Ширина : 696 пикселей
Высота : 570 пикселей
Соотношение сторон : 4:3
Режим частоты кадров : Постоянный
Частота кадров : 25,000 кадров/сек
Цветовое пространство : YUV
Субдискретизация насыщенности : 4:2:0
Битовая глубина : 8 бит
Тип развёртки : Прогрессивная
Бит/(Пиксели*Кадры) : 0.171
Размер потока : 231 Мбайт (88%)
Библиотека кодирования : x264 core 130 r2273 b3065e6
Настройки программы : cabac=1 / ref=10 / deblock=1:-2:-1 / analyse=0x3:0x113 / me=umh / subme=10 / psy=1 / psy_rd=1.00:0.00 / mixed_ref=1 / me_range=32 / chroma_me=1 / trellis=2 / 8x8dct=1 / cqm=0 / deadzone=21,11 / fast_pskip=1 / chroma_qp_offset=-2 / threads=6 / lookahead_threads=1 / sliced_threads=0 / nr=0 / decimate=0 / interlaced=0 / bluray_compat=0 / constrained_intra=0 / bframes=8 / b_pyramid=2 / b_adapt=2 / b_bias=0 / direct=3 / weightb=1 / open_gop=0 / weightp=2 / keyint=250 / keyint_min=25 / scenecut=40 / intra_refresh=0 / rc=2pass / mbtree=0 / bitrate=1694 / ratetol=1.0 / qcomp=0.60 / qpmin=0 / qpmax=69 / qpstep=4 / cplxblur=20.0 / qblur=0.5 / ip_ratio=1.40 / pb_ratio=1.30 / aq=1:1.00
Default : Да
Forced : Нет
Аудио
Идентификатор : 2
Формат : AC-3
Формат/Информация : Audio Coding 3
Идентификатор кодека : A_AC3
Продолжительность : 19 м. 28 с.
Вид битрейта : Постоянный
Битрейт : 192 Кбит/сек
Каналы : 2 канала
Расположение каналов : Front: L R
Частота : 48,0 КГц
Частота кадров : 31,250 кадров/сек (1536 SPF)
Битовая глубина : 16 бит
Метод сжатия : С потерями
Размер потока : 26,7 Мбайт (10%)
Default : Да
Forced : Нет





   Похожие торренты   Торрент   Размер 
В этой теме нет новых непрочитанных сообщений. Лукоморье. Сборник мультфильмов (1959-1992) DVDRip от New-Team

27 | 7

1.08 ГБ

В этой теме нет новых непрочитанных сообщений. 38 попугаев / Сборник мультфильмов (1967-1992) DVDRip

107 | 24

2.74 ГБ

В этой теме нет новых непрочитанных сообщений. Машенька. Сборник мультфильмов (1955-1992) DVDRip от Torrent-Xzona

7 | 8

749.79 МБ

В этой теме нет новых непрочитанных сообщений. Сборник мультфильмов Леонида Кощеникова - Полная коллекция (1972-1992) DVDRip

40 | 12

5.13 ГБ

В этой теме нет новых непрочитанных сообщений. Чип и Дейл - сборник мультфильмов (1947-1992) DVDRip-AVC, SATRip-AVC от Egorijj.Alien | КПК

266 | 96

7.07 ГБ

В этой теме нет новых непрочитанных сообщений. Сборник мультфильмов Давида Черкасского - Полная коллекция (1969-1992) DVDRip

176 | 42

5.39 ГБ

В этой теме нет новых непрочитанных сообщений. Сборник мультфильмов Юрия Трофимова - Полная коллекция (1972-1992) DVDRip

44 | 129

4.61 ГБ




Вы не можете начинать темы
Вы не можете отвечать на сообщения
Вы не можете редактировать свои сообщения
Вы не можете удалять свои сообщения
Вы не можете добавлять вложения

Перейти:  
Для Мосгорсуда, Роскомнадзора и рекламодателей: mosgorsud-torrent[собачка]yandex.ru
 Вход
ppkBB3cker v.2 © 2008-2014 @ PPK
[ Time : 0.052s | 18 Queries | GZIP : Off ]

cron