img image001 image001 image001 image001 image001 image001 image001 image001 image001 image001 image001 image001 image001 image001 image001
Planets Sun Sun Sun
Статистика раздачи
Автор: Снежана | Размер: 6.78 ГБ | Добавлен: 14 фев 2018
Раздают: 6    Качают: 0
Скачать торрент
Скачать торрент
Описание торрента

СообщениеДобавлено: 14 фев 2018 

Жизнь Кабачка / Ma vie de Courgette

Перевод: Профессиональный (многоголосый, закадровый) [iTunes]
Cубтитры: отсутствуют
Формат: BDRip, MKV, H.264, AC3/DTS
Страна: Швейцария, Франция
Режиссер: Клод Баррас
Жанр: мультфильм, семейный, драма
Продолжительность: 01:05:49
Год выпуска: 2016

В ролях: Гаспар Шлаттер, Сикстин Мюра, Полин Жаккуд, Мишель Вюйермоз, Рауль Рибера, Эллиот Санчес, Эстелль Эннар, Бриджитт Россет, Наташа Кучумов

Описание: Кабачок – вовсе не овощ, так зовут маленького мальчика. Его мама погибла, и он остался во всем мире совсем один и совсем не знает, как и с кем ему жить дальше. Симон, Ахмед, Жужубе, Алиса и Беатрис – новые друзья Кабачка, которых он встречает в приюте для детей. Там же он впервые влюбится, в особенную, очаровательную Камиллу.
Это история о детях, жизнь которых полна больших и маленьких потрясений, но они находят в себе силы снова доверять людям, продолжают любить мир, радуются всему новому.


Рейтинг на IMDB: 7.8/10
Рейтинг на КиноПоиск.Ru: 7.322
Рейтинг MPAA: PG-13

Видео: 1920x1080p (16:9), 23.976 fps, AVC MPEG-4 (x264), , ~12.9 Mbps avg, 0.259 bit/pixel

Аудио#1: Русский: 48 kHz, AC3, 3/2 (L,C,R,l,r) + LFE ch, ~384 kbps avg [Профессиональный (многоголосый, закадровый) iTunes]
Аудио#2: Французский: 48 kHz, DTS, 3/2 (L,C,R,l,r) + LFE ch, ~1509 kbps avg [Оригинал]
Format : Matroska
Format version : Version 4 / Version 2
File size : 6.78 GiB
Duration : 1 h 5 min
Overall bit rate : 14.8 Mb/s
Movie name : My Life as a Zucchini 2016 1080p BluRay DTS 3Audio x264-HDS
Encoded date : UTC 2018-02-11 17:15:04
Writing application : mkvmerge v8.0.0 ('Til The Day That I Die') 64bit
Writing library : libebml v1.3.1 + libmatroska v1.4.2

Video
ID : 1
Format : AVC
Format/Info : Advanced Video Codec
Format profile :
Format settings : CABAC / 4 Ref Frames
Format settings, CABAC : Yes
Format settings, ReFrames : 4 frames
Codec ID : V_MPEG4/ISO/AVC
Duration : 1 h 5 min
Bit rate : 12.9 Mb/s
Width : 1 920 pixels
Height : 1 080 pixels
Display aspect ratio : 16:9
Frame rate mode : Constant
Frame rate : 23.976 (24000/1001) FPS
Color space : YUV
Chroma subsampling : 4:2:0
Bit depth : 8 bits
Scan type : Progressive
Bits/(Pixel*Frame) : 0.259
Stream size : 5.91 GiB (87%)
Title : Ma vie de Courgette
Writing library : x264 core 148 r2705+45 bdacf7a 7mod [[email protected] X86_64]
Encoding settings : cabac=1 / ref=4 / deblock=1:-3:-3 / analyse=0x3:0x113 / me=umh / subme=11 / psy=1 / fade_compensate=0.00 / psy_rd=1.00:0.05 / mixed_ref=1 / me_range=32 / chroma_me=1 / trellis=2 / 8x8dct=1 / cqm=0 / deadzone=21,11 / fast_pskip=0 / chroma_qp_offset=-2 / threads=12 / lookahead_threads=2 / sliced_threads=0 / nr=0 / decimate=1 / interlaced=0 / bluray_compat=0 / constrained_intra=0 / fgo=0 / bframes=8 / b_pyramid=2 / b_adapt=2 / b_bias=0 / direct=3 / weightb=1 / open_gop=0 / weightp=2 / keyint=250 / keyint_min=23 / scenecut=40 / intra_refresh=0 / rc_lookahead=40 / rc=crf / mbtree=0 / crf=15.5000 / qcomp=0.60 / qpmin=0:0:0 / qpmax=69:69:69 / qpstep=4 / vbv_maxrate=50000 / vbv_bufsize=40000 / crf_max=0.0 / nal_hrd=none / filler=0 / ip_ratio=1.40 / pb_ratio=1.30 / aq=4:0.90 / aq-sensitivity=10.00 / aq-factor=1.00:1.00:1.00 / aq2=0 / aq3=0
Default : Yes
Forced : No

Audio #1
ID : 2
Format : AC-3
Format/Info : Audio Coding 3
Codec ID : A_AC3
Duration : 1 h 5 min
Bit rate mode : Constant
Bit rate : 384 kb/s
Channel(s) : 6 channels
Channel positions : Front: L C R, Side: L R, LFE
Sampling rate : 48.0 kHz
Frame rate : 31.250 FPS (1536 SPF)
Bit depth : 16 bits
Compression mode : Lossy
Stream size : 181 MiB (3%)
Title : iTunes
Language : Russian
Service kind : Complete Main
Default : Yes
Forced : No

Audio #2
ID : 3
Format : DTS
Format/Info : Digital Theater Systems
Codec ID : A_DTS
Duration : 1 h 5 min
Bit rate mode : Constant
Bit rate : 1 509 kb/s
Channel(s) : 6 channels
Channel positions : Front: L C R, Side: L R, LFE
Sampling rate : 48.0 kHz
Frame rate : 93.750 FPS (512 SPF)
Bit depth : 24 bits
Compression mode : Lossy
Stream size : 710 MiB (10%)
Title : French
Language : French
Default : No
Forced : No

Menu
00:00:00.000 : en:00:00:00.000
00:05:51.351 : en:00:05:51.351
00:10:59.659 : en:00:10:59.659
00:15:27.927 : en:00:15:27.927
00:21:54.313 : en:00:21:54.313
00:28:12.691 : en:00:28:12.691
00:32:16.935 : en:00:32:16.935
00:38:43.321 : en:00:38:43.321
00:44:34.672 : en:00:44:34.672
00:49:52.990 : en:00:49:52.990
00:55:34.331 : en:00:55:34.331
00:59:57.594 : en:00:59:57.594











   Похожие торренты   Торрент   Размер 
В этой теме нет новых непрочитанных сообщений. Жизнь кабачка / Ma vie de Courgette / My Life as a Zucchini (2016) BDRip 1080p от ExKinoRay | iTunes

67 | 7

8.68 ГБ

В этой теме нет новых непрочитанных сообщений. Жизнь Кабачка / Ma vie de Courgette (2016) BDRip от ExKinoRay | iTunes

58 | 0

1.43 ГБ

В этой теме нет новых непрочитанных сообщений. Жизнь Кабачка / Ma vie de Courgette (2016) BDRip-AVC от HELLYWOOD | iTunes

50 | 0

1.43 ГБ

В этой теме нет новых непрочитанных сообщений. Жизнь кабачка / Ma vie de Courgette / My Life as a Zucchini (2016) BDRemux 1080p от ExKinoRay | iTunes

26 | 6

16.69 ГБ

В этой теме нет новых непрочитанных сообщений. Жизнь Кабачка / Ma vie de Courgette (2016) BDRip 720p от R.G.Resident | iTunes

164 | 4

2.2 ГБ

В этой теме нет новых непрочитанных сообщений. Жизнь кабачка / Ma vie de Courgette (2016) HDRip-AVC от ExKinoRay | iTunes

40 | 0

1.36 ГБ

В этой теме нет новых непрочитанных сообщений. Жизнь кабачка / Ma vie de Courgette (2016) HDRip от MegaPeer | iTunes

630 | 16

1.37 ГБ




Вы не можете начинать темы
Вы не можете отвечать на сообщения
Вы не можете редактировать свои сообщения
Вы не можете удалять свои сообщения
Вы не можете добавлять вложения

Перейти:  
Для Мосгорсуда, Роскомнадзора и рекламодателей: mosgorsud-torrent[собачка]yandex.ru
 Вход
ppkBB3cker v.2 © 2008-2014 @ PPK
[ Time : 0.057s | 18 Queries | GZIP : Off ]

cron