Grown-ish S01E08 iNTERNAL 720p WEB x264-BAMBOOZLE[eztv] mkv
QI S15E13 EXTENDED 720p WEB h264-FaiLED[eztv] mkv
img image001 image001 image001 image001 image001 image001 image001 image001 image001 image001 image001 image001 image001 image001 image001 image001
Planets Sun Sun Sun
Статистика раздачи
Автор: Снежана | Размер: 48.38 МБ | Добавлен: 14 фев 2018
Раздают: 12    Качают: 0
Скачать торрент
Скачать торрент
Описание торрента

СообщениеДобавлено: 14 фев 2018 

Вуду Себастьяна / Sebastian's Voodoo

Перевод: Не требуется, cубтитры: отсутствуют
Формат: HDTVRip 720p, MKV, H.264, AAC
Страна: США
Режиссер: Хоакин Болдуин
Жанр: мультфильм, короткометражка, ужасы, фэнтези, драма
Продолжительность: 00:04:07
Год выпуска: 2008

Описание: Жертва определена. Колдун берёт очередную куклу вуду, которая, кажется, чувствует всю эту боль! И в попытке помочь одной из них уйти от страданий наш маленький герой Себастьян должен найти храбрости сразится с человеком. Себастьяну необходимо победить колдуна, дав ему испытать вкус собственного колдовства.

Видео: 1280х720 (16:9), 24fps, H.264/MPEG-4 AVC, , 1 444 kb/s, 0.065 bit/pixel
Аудио: 48.0KHz, AAC-LC, 2chanels, 192 kb/s
Общее
Уникальный идентификатор : 227411796724896871943029706000001345633 (0xAB15EB3D284CCEAE9BDFAA01C5832861)
Полное имя : M:\Себастьян_Вуду. (2008).HDTVRip.720p.mkv
Формат : Matroska
Версия формата : Version 4 / Version 2
Размер файла : 48,4 Мбайт
Продолжительность : 4 м. 7 с.
Общий поток : 1641 Кбит/сек
Дата кодирования : UTC 2018-02-13 11:37:47
Программа кодирования : mkvmerge v8.3.0 ('Over the Horizon') 32bit
Библиотека кодирования : libebml v1.3.1 + libmatroska v1.4.2 / Lavf57.41.100

Видео
Идентификатор : 1
Формат : AVC
Формат/Информация : Advanced Video Codec
Профиль формата :
Настройки формата : CABAC / 4 Ref Frames
Параметр CABAC формата : Да
Параметр RefFrames формата : 4 кадра
Идентификатор кодека : V_MPEG4/ISO/AVC
Продолжительность : 4 м. 7 с.
Битрейт : 1444 Кбит/сек
Номинальный битрейт : 1536 Кбит/сек
Ширина : 1280 пикселей
Высота : 720 пикселей
Соотношение сторон : 16:9
Режим частоты кадров : Постоянный
Частота кадров : 24,000 кадра/сек
Цветовое пространство : YUV
Субдискретизация насыщенности : 4:2:0
Битовая глубина : 8 бит
Тип развёртки : Прогрессивная
Бит/(Пиксели*Кадры) : 0.065
Размер потока : 42,6 Мбайт (88%)
Библиотека кодирования : x264 core 148
Настройки программы : cabac=1 / ref=3 / deblock=1:0:0 / analyse=0x3:0x113 / me=hex / subme=7 / psy=1 / psy_rd=1.00:0.00 / mixed_ref=1 / me_range=16 / chroma_me=1 / trellis=1 / 8x8dct=1 / cqm=0 / deadzone=21,11 / fast_pskip=1 / chroma_qp_offset=-2 / threads=6 / lookahead_threads=1 / sliced_threads=0 / nr=0 / decimate=1 / interlaced=0 / bluray_compat=0 / constrained_intra=0 / bframes=3 / b_pyramid=2 / b_adapt=1 / b_bias=0 / direct=1 / weightb=1 / open_gop=0 / weightp=2 / keyint=250 / keyint_min=24 / scenecut=40 / intra_refresh=0 / rc_lookahead=40 / rc=abr / mbtree=1 / bitrate=1536 / ratetol=1.0 / qcomp=0.60 / qpmin=0 / qpmax=69 / qpstep=4 / ip_ratio=1.40 / aq=1:1.00
Default : Да
Forced : Нет

Аудио
Идентификатор : 2
Формат : AAC
Формат/Информация : Advanced Audio Codec
Профиль формата : LC
Идентификатор кодека : A_AAC-2
Продолжительность : 4 м. 7 с.
Битрейт : 192 Кбит/сек
Каналы : 2 канала
Расположение каналов : Front: L R
Частота : 48,0 КГц
Частота кадров : 46,875 кадров/сек (1024 SPF)
Метод сжатия : С потерями
Размер потока : 5,75 Мбайт (12%)
Default : Да
Forced : Нет










   Похожие торренты   Торрент   Размер 
В этой теме нет новых непрочитанных сообщений. Колдовство Себастьяна / Себастьян - Кукла Вуду / Вуду Себастьяна / Sebastian's Voodoo (2008) HDTVRip 720p

16 | 2

148.31 МБ

В этой теме нет новых непрочитанных сообщений. С любовью из 80-х (Евгений Жёлтиков) [2015, анимация, любительский мультфильм, драма, короткометражка, TVRip] VO

2 | 18

192.84 МБ

В этой теме нет новых непрочитанных сообщений. Велоспорт. Классика Сан-Себастьяна / Clasica of San Sebastian (2013) HDTV 1080р

0 | 1

1.87 ГБ

В этой теме нет новых непрочитанных сообщений. Одержимость вуду / Voodoo Possession (2014) BDRip 720p | L2

251 | 37

4.49 ГБ

В этой теме нет новых непрочитанных сообщений. Твоё имя / Kimi no Na wa (Макото Синкай) [Movie] [RUS] [2016, аниме, мультфильм, фэнтези, драма, мелодрама, HDRip] [720p]

6 | 3

1.1 ГБ

В этой теме нет новых непрочитанных сообщений. Вуду / Voodoo (1995) DVDRip

2 | 4

1.37 ГБ

В этой теме нет новых непрочитанных сообщений. Вуду / VooDoo (2017) WEB-DLRip | L

15 | 0

1.37 ГБ




Вы не можете начинать темы
Вы не можете отвечать на сообщения
Вы не можете редактировать свои сообщения
Вы не можете удалять свои сообщения
Вы не можете добавлять вложения

Перейти:  
Для Мосгорсуда, Роскомнадзора и рекламодателей: mosgorsud-torrent[собачка]yandex.ru
 Вход
ppkBB3cker v.2 © 2008-2014 @ PPK
[ Time : 0.032s | 18 Queries | GZIP : Off ]

cron