img image001 image001 image001 image001 image001 image001 image001 image001 image001 image001 image001 image001 image001 image001 image001

Planets Sun Sun Sun
Статистика раздачи
Автор: Nickolas3434 | Размер: 264.99 МБ | Добавлен: 07 ноя 2017
Раздают: 2    Качают: 0
Скачать торрент
Скачать торрент
Описание торрента

СообщениеДобавлено: 07 ноя 2017 

Детектив Конан: Цель - Когоро!!! Тайный доклад Юных Сыщиков!
Страна: Япония
Год выпуска: 2005
Жанр: приключения, детектив
Тип: OVA
Продолжительность: (1 эп.), 25 мин.
Режиссер: Ямамото Ясуйтиро
Студия: TMS
Описание:
Выполняя школьное задание, юная команда детективов начинает изучать жизнь Мори Когоро. Ему поручают следить за бойфрендом своей дочери влиятельные люди, но прямо на глазах у Мори парня похищают. Юная команда детективов решает помочь Мори Когоро в его деле.
Доп. информация:
Релиз GSGroup

Качество: DVDRip
Тип релиза: Без хардсаба
Формат видео: MKV
Автор рипа: APTX4869
Видео: AVC 704x528 4:3 23.976 fps 1165 Kbps 8 bits
Аудио 1: AC-3 192 Kbps 2 channels 48.0 KHz Язык Русский (в составе контейнера) ; Озвучка: Любительская одноголосая: Persona99
Аудио 2: AC-3 192 Kbps 2 channels 48.0 KHz Язык Японский
Субтитры: ass встроенные Язык субтитров русский ; Перевод: Tachikoma h, Teisson h. Редактура, оформление, лирика: powerwar
Код:
General
Unique ID                   : 241565919234197862737701552955929784861 (0xB5BBE75B7B6EFF81902B2FC183F5F21D)
Complete name               : Detective Conan OVADetective Conan OVA-05 ~Hyouteki wa Kogoro!! Shounen Tanteidan Maruchichousa~[DVDRIP_X264_AC3].rus.jpn.mkv
Format                      : Matroska
Format version              : Version 2
File size                   : 265 MiB
Duration                    : 23mn 26s
Overall bit rate            : 1 580 Kbps
Encoded date                : UTC 2017-11-01 02:17:54
Writing application         : mkvmerge v4.0.0 ('The Stars were mine') built on Jun  6 2010 16:18:42
Writing library             : libebml v1.0.0 + libmatroska v1.0.0
Attachements                : AFuturaRoundDemi.otf / ANTQUAB.TTF / ANTQUABI.TTF / ANTQUAI.TTF / ARIALN.TTF / ARIALNB.TTF / ARIALNBI.TTF / ARIALNI.TTF / ariblk.ttf / BENGUIAT.TTF / BenguiatGothicCTT.TTF / Betina Bold.Ttf / BetinaCTT.ttf / BKANT.TTF / BTS.TTF / calibri.ttf / calibrib.ttf / calibrii.ttf / calibriz.ttf / cambria.ttc / cambriab.ttf / cambriai.ttf / cambriaz.ttf / CGOTHIC.TTF / Domkrat Bold.ttf / MyriadPro-BoldCond.otf / MyriadPro-BoldCondIt.otf / MyriadPro-Cond.otf / MyriadPro-CondIt.otf / Studio.ttf / trebuc.ttf / trebucbd.ttf / trebucbi.ttf / trebucit.ttf
Video
ID                          : 1
Format                      : AVC
Format/Info                 : Advanced Video Codec
Format profile              : [email protected]
Format settings, CABAC      : Yes
Format settings, ReFrames   : 4 frames
Codec ID                    : V_MPEG4/ISO/AVC
Duration                    : 23mn 26s
Bit rate                    : 1 165 Kbps
Nominal bit rate            : 1 258 Kbps
Width                       : 704 pixels
Height                      : 528 pixels
Display aspect ratio        : 4:3
Frame rate mode             : Constant
Frame rate                  : 23.976 fps
Color space                 : YUV
Chroma subsampling          : 4:2:0
Bit depth                   : 8 bits
Scan type                   : Progressive
Bits/(Pixel*Frame)          : 0.131
Stream size                 : 195 MiB (74%)
Title                       : Video
Writing library             : x264 core 45 svn-465
Encoding settings           : cabac=1 / ref=1 / deblock=1:0:0 / analyse=0x3:0x133 / me=hex / subme=5 / brdo=0 / mixed_ref=0 / me_range=16 / chroma_me=1 / trellis=1 / 8x8dct=1 / cqm=0 / chroma_qp_offset=0 / slices=1 / nr=0 / bframes=2 / b_pyramid=1 / b_adapt=1 / b_bias=0 / direct=2 / wpredb=1 / bime=1 / keyint=250 / keyint_min=25 / scenecut=40 / rc=2pass / bitrate=1258 / ratetol=1.0 / rceq='blurCplx^(1-qComp)' / qcomp=0.60 / qpmin=15 / qpmax=25 / qpstep=4 / cplxblur=20.0 / qblur=0.5 / ip_ratio=1.40 / pb_ratio=1.30
Language                    : Japanese
Default                     : No
Forced                      : No
Audio #1
ID                          : 2
Format                      : AC-3
Format/Info                 : Audio Coding 3
Mode extension              : CM (complete main)
Format settings, Endianness : Big
Codec ID                    : A_AC3
Duration                    : 23mn 26s
Bit rate mode               : Constant
Bit rate                    : 192 Kbps
Channel(s)                  : 2 channels
Channel positions           : Front: L R
Sampling rate               : 48.0 KHz
Compression mode            : Lossy
Stream size                 : 32.2 MiB (12%)
Title                       : Persona99
Language                    : Russian
Default                     : Yes
Forced                      : No
Audio #2
ID                          : 3
Format                      : AC-3
Format/Info                 : Audio Coding 3
Mode extension              : CM (complete main)
Format settings, Endianness : Big
Codec ID                    : A_AC3
Duration                    : 23mn 26s
Bit rate mode               : Constant
Bit rate                    : 192 Kbps
Channel(s)                  : 2 channels
Channel positions           : Front: L R
Sampling rate               : 48.0 KHz
Compression mode            : Lossy
Delay relative to video     : 6ms
Stream size                 : 32.2 MiB (12%)
Title                       : Audio
Language                    : Japanese
Default                     : No
Forced                      : No
Text
ID                          : 4
Format                      : ASS
Codec ID                    : S_TEXT/ASS
Codec ID/Info               : Advanced Sub Station Alpha
Compression mode            : Lossless
Title                       : ass
Language                    : Russian
Default                     : No
Forced                      : No
Menu
00:00:00.000                : en:OVA's Advice
00:00:15.556                : en:CONAN logo
00:00:22.563                : en:1st Part
00:02:27.772                : en:2nd Part
00:10:38.804                : en:3rd Part
00:21:18.945                : en:Ending Theme
00:22:44.280                : en:4th Part
 




   Похожие торренты   Торрент   Размер 
В этой теме нет новых непрочитанных сообщений. Детектив Конан OVA-3: Конан, Хейджи и исчезнувший мальчик / Detective Conan: Conan and Heiji and the Vanished Boy (2003) DVDRip-AVC | L

1 | 6

220.39 МБ

В этой теме нет новых непрочитанных сообщений. Детектив Конан OVA-4: Конан, Кид и Мать-Кристал! / Detective Conan: Conan and Kid and Crystal Mother (2004) DVDRip-AVC | L

1 | 0

311.39 МБ

В этой теме нет новых непрочитанных сообщений. Детектив Конан / Detective Conan TV [001-100] (1996) DVDRip | Persona99

1 | 28

32.43 ГБ

В этой теме нет новых непрочитанных сообщений. Детектив Конан / Detective Conan TV [101-200] (1996) DVDRip | Persona99

5 | 1

33.67 ГБ

В этой теме нет новых непрочитанных сообщений. Детектив Конан OVA-2: 16 подозреваемых / Detective Conan: 16 Suspects [OVA-2] (2002) DVDRip AVC | Persona99

11 | 1

339.37 МБ

В этой теме нет новых непрочитанных сообщений. Детектив Конан OVA-9: Незнакомец через 10 лет / Detective Conan: The Stranger of 10 Years (2009) DVDRip-AVC | L

1 | 0

253.84 МБ

В этой теме нет новых непрочитанных сообщений. Детектив Конан OVA-10: Кид на острове ловушек! / Detective Conan: Kid in Trap Island (2010) DVDRip-AVC | L1

1 | 0

321.95 МБ




Вы не можете начинать темы
Вы не можете отвечать на сообщения
Вы не можете редактировать свои сообщения
Вы не можете удалять свои сообщения
Вы не можете добавлять вложения

Перейти:  
Для Мосгорсуда, Роскомнадзора и рекламодателей: mosgorsud-torrent[собачка]yandex.ru
 Вход
ppkBB3cker v.2 © 2008-2014 @ PPK
[ Time : 0.067s | 17 Queries | GZIP : Off ]

cron