img image001 image001 image001 image001 image001 image001 image001 image001 image001 image001 image001 image001 image001 image001 image001

Planets Sun Sun Sun
Статистика раздачи
Автор: Nickolas3434 | Размер: 176.18 МБ | Добавлен: 08 ноя 2017
Раздают: 0    Качают: 0
Скачать торрент
Скачать торрент
Описание торрента

СообщениеДобавлено: 08 ноя 2017 

Детектив Конан: В погоне за исчезнувшим бриллиантом! Конан и Хэйдзи против Кида! / Detective Conan: Follow the Vanished Diamond! Conan & Heiji vs. Kid! / Meitantei Conan: Kieta Daiya o Oe! Conan & Heiji VS Kid!
Страна: Япония
Год выпуска: 2006
Жанр: приключения, детектив
Тип: OVA
Продолжительность: (1 эп.), 23 мин.
Режиссер: Ямамото Ясуйтиро
Студия: TMS
Описание:
Мори Когоро ведет себя странно. Кто-то звонит в агенство, требуя выкуп. Кто это может быть? Кого похитили? Конан и Ран вызывают из Осаки Хатори, чтобы он помог в расследовании происходящего.
Доп. информация:
Релиз GSGroup

Качество: DVDRip
Тип релиза: Без хардсаба
Формат видео: MKV
Автор рипа: APTX4869
Видео: AVC 704x528 4:3 23.976 fps 650 Kbps 8 bits
Аудио 1: AC-3 192 Kbps 2 channels 48.0 KHz Язык Русский (в составе контейнера) ; Озвучка: Любительская одноголосая: Persona99
Аудио 2: AC-3 192 Kbps 2 channels 48.0 KHz Язык Японский
Субтитры: ass встроенные Язык субтитров русский ; Перевод: Tachikoma h, Teisson h. Редактура: Roaring_Lion, лирика: korrah
Код:
General
Unique ID                   : 214692520072369710222881787106526675660 (0xA184467BA7CFF764B390E5267D82C2CC)
Complete name               : Detective Conan OVADetective Conan OVA-06 ~Kieta Daiya o Oe! Conan & Heiji vs Kid!~[DVDRIP_X264_AC3].rus.jpn.mkv
Format                      : Matroska
Format version              : Version 2
File size                   : 176 MiB
Duration                    : 22mn 56s
Overall bit rate            : 1 074 Kbps
Encoded date                : UTC 2017-11-01 02:20:40
Writing application         : mkvmerge v4.0.0 ('The Stars were mine') built on Jun  6 2010 16:18:42
Writing library             : libebml v1.0.0 + libmatroska v1.0.0
Attachements                : AFuturaRoundDemi.otf / ANTQUAB.TTF / ANTQUABI.TTF / ANTQUAI.TTF / ARIALN.TTF / ARIALNB.TTF / ARIALNBI.TTF / ARIALNI.TTF / ariblk.ttf / BENGUIAT.TTF / BenguiatGothicCTT.TTF / Betina Bold.Ttf / BetinaCTT.ttf / BKANT.TTF / BTS.TTF / calibri.ttf / calibrib.ttf / calibrii.ttf / calibriz.ttf / cambria.ttc / cambriab.ttf / cambriai.ttf / cambriaz.ttf / CGOTHIC.TTF / Domkrat Bold.ttf / MyriadPro-BoldCond.otf / MyriadPro-BoldCondIt.otf / MyriadPro-Cond.otf / MyriadPro-CondIt.otf / Studio.ttf / trebuc.ttf / trebucbd.ttf / trebucbi.ttf / trebucit.ttf
Video
ID                          : 1
Format                      : AVC
Format/Info                 : Advanced Video Codec
Format profile              : [email protected]
Format settings, CABAC      : Yes
Format settings, ReFrames   : 4 frames
Codec ID                    : V_MPEG4/ISO/AVC
Duration                    : 22mn 56s
Bit rate                    : 650 Kbps
Width                       : 704 pixels
Height                      : 528 pixels
Display aspect ratio        : 4:3
Frame rate mode             : Constant
Frame rate                  : 23.976 fps
Color space                 : YUV
Chroma subsampling          : 4:2:0
Bit depth                   : 8 bits
Scan type                   : Progressive
Bits/(Pixel*Frame)          : 0.073
Stream size                 : 110 MiB (62%)
Title                       : Video
Writing library             : x264 core 46 svn-512
Encoding settings           : cabac=1 / ref=1 / deblock=1:0:0 / analyse=0x3:0x133 / me=hex / subme=5 / brdo=0 / mixed_ref=0 / me_range=16 / chroma_me=1 / trellis=1 / 8x8dct=1 / cqm=0 / chroma_qp_offset=0 / slices=1 / nr=0 / decimate=1 / bframes=3 / b_pyramid=1 / b_adapt=1 / b_bias=2 / direct=2 / wpredb=1 / bime=1 / keyint=240 / keyint_min=10 / scenecut=40 / rc=2pass / bitrate=650 / ratetol=1.0 / rceq='blurCplx^(1-qComp)' / qcomp=0.75 / qpmin=10 / qpmax=51 / qpstep=2 / cplxblur=20.0 / qblur=0.5 / ip_ratio=1.60 / pb_ratio=1.30
Language                    : Japanese
Default                     : No
Forced                      : No
Audio #1
ID                          : 2
Format                      : AC-3
Format/Info                 : Audio Coding 3
Mode extension              : CM (complete main)
Format settings, Endianness : Big
Codec ID                    : A_AC3
Duration                    : 22mn 56s
Bit rate mode               : Constant
Bit rate                    : 192 Kbps
Channel(s)                  : 2 channels
Channel positions           : Front: L R
Sampling rate               : 48.0 KHz
Compression mode            : Lossy
Delay relative to video     : -125ms
Stream size                 : 31.5 MiB (18%)
Title                       : Persona99
Language                    : Russian
Default                     : Yes
Forced                      : No
Audio #2
ID                          : 3
Format                      : AC-3
Format/Info                 : Audio Coding 3
Mode extension              : CM (complete main)
Format settings, Endianness : Big
Codec ID                    : A_AC3
Duration                    : 22mn 56s
Bit rate mode               : Constant
Bit rate                    : 192 Kbps
Channel(s)                  : 2 channels
Channel positions           : Front: L R
Sampling rate               : 48.0 KHz
Compression mode            : Lossy
Delay relative to video     : 22ms
Stream size                 : 31.5 MiB (18%)
Title                       : Audio
Language                    : Japanese
Default                     : No
Forced                      : No
Text
ID                          : 4
Format                      : ASS
Codec ID                    : S_TEXT/ASS
Codec ID/Info               : Advanced Sub Station Alpha
Compression mode            : Lossless
Title                       : ass
Language                    : Russian
Default                     : No
Forced                      : No
Menu
00:00:00.000                : en:APTX4869 Logo
00:00:00.042                : en:OVA's Advice
00:00:13.514                : en:CONAN & Sunday Weekly Logo
00:00:25.025                : en:OVA Name
00:00:30.072                : en:1st Part
00:14:25.491                : en:2nd Part
00:21:06.918                : en:Ending Theme
00:22:32.478                : en:3rd Part
 




   Похожие торренты   Торрент   Размер 
В этой теме нет новых непрочитанных сообщений. Детектив Конан OVA-3: Конан, Хейджи и исчезнувший мальчик / Detective Conan: Conan and Heiji and the Vanished Boy (2003) DVDRip-AVC | L

1 | 6

220.39 МБ

В этой теме нет новых непрочитанных сообщений. Детектив Конан OVA-4: Конан, Кид и Мать-Кристал! / Detective Conan: Conan and Kid and Crystal Mother (2004) DVDRip-AVC | L

1 | 0

311.39 МБ

В этой теме нет новых непрочитанных сообщений. Детектив Конан / Detective Conan TV [001-100] (1996) DVDRip | Persona99

1 | 28

32.43 ГБ

В этой теме нет новых непрочитанных сообщений. Детектив Конан / Detective Conan TV [101-200] (1996) DVDRip | Persona99

5 | 1

33.67 ГБ

В этой теме нет новых непрочитанных сообщений. Детектив Конан: Письмо-вызов для Кудо Шиничи / Detective Conan: Kudo Shinichi's Written Challenge (2006) TVRip | L1

22 | 4

1.13 ГБ

В этой теме нет новых непрочитанных сообщений. Детектив Конан OVA-2: 16 подозреваемых / Detective Conan: 16 Suspects [OVA-2] (2002) DVDRip AVC | Persona99

11 | 1

339.37 МБ

В этой теме нет новых непрочитанных сообщений. Детектив Конан OVA-9: Незнакомец через 10 лет / Detective Conan: The Stranger of 10 Years (2009) DVDRip-AVC | L

1 | 0

253.84 МБ




Вы не можете начинать темы
Вы не можете отвечать на сообщения
Вы не можете редактировать свои сообщения
Вы не можете удалять свои сообщения
Вы не можете добавлять вложения

Перейти:  
Для Мосгорсуда, Роскомнадзора и рекламодателей: mosgorsud-torrent[собачка]yandex.ru
 Вход
ppkBB3cker v.2 © 2008-2014 @ PPK
[ Time : 0.068s | 17 Queries | GZIP : Off ]

cron