img image001 image001 image001 image001 image001 image001 image001 image001 image001 image001 image001 image001 image001 image001 image001

Planets Sun Sun Sun
Статистика раздачи
Автор: Nickolas3434 | Размер: 302.12 МБ | Добавлен: 17 дек 2017
Раздают: 3    Качают: 0
Скачать торрент
Скачать торрент
Описание торрента

СообщениеДобавлено: 17 дек 2017 

Год выпуска: 2011
Жанр: приключения, детектив
Тип: OVA
Режиссер: Оти Хирохито
Студия: TMS
Описание:
Случайно встретившись с таинственной незнакомкой из Англии, Кудо Шиничи получает уникальный шанс отправиться на родину Шерлока Холмса. Но пока он, решив при помощи Хайбары маленькие трудности с визой и своим непослушным телом, готовится к разрешению самого важного дела своей жизни, дома происходят странные события. За Хайбарой следит человек в черном! Неужели Организация разоблачила её личность?
Релиз GSGroup:

Страна: Япония
Продолжительность: 30 мин.
Озвучка: Любительская (одноголосая, закадровая) Persona99
Качество: DVDRip
Тип релиза: Без хардсаба
Формат видео: MKV
Видео: AVC 856x480 23.976 fps ~1100 Kbps 8 bits
Аудио 1: AC-3 192 Kbps 2 channels 48.0 KHz Язык Русский (в составе контейнера) ;
Аудио 2: AC-3 192 Kbps 2 channels 48.0 KHz Язык Японский
Субтитры: русские Перевод: Teisson h.
Редактура, оформление: powerwar
QC: Roaring_Lion
Лирика: AlenFuns
General
Unique ID : 171172075041175301115212364215438609749 (0x80C68AE10C743497A1769AB6E3450D55)
Complete name : Detective Conan OVADetective Conan OVA-11 ~London kara no Maru Hi Shirei~[DVDRIP_X264_AC3].rus.jpn.mkv
Format : Matroska
Format version : Version 2
File size : 302 MiB
Duration : 27mn 42s
Overall bit rate : 1 524 Kbps
Encoded date : UTC 2017-12-07 18:29:34
Writing application : mkvmerge v4.0.0 ('The Stars were mine') built on Jun 6 2010 16:18:42
Writing library : libebml v1.0.0 + libmatroska v1.0.0
Attachements : CALIBRIB.TTF / CAMBRIAB.TTF / trebuc.ttf / trebucbd.ttf / trebucit.ttf
Video
ID : 1
Format : AVC
Format/Info : Advanced Video Codec
Format profile : [email protected]
Format settings, CABAC : Yes
Format settings, ReFrames : 4 frames
Codec ID : V_MPEG4/ISO/AVC
Duration : 27mn 42s
Bit rate : 1 110 Kbps
Width : 856 pixels
Height : 480 pixels
Display aspect ratio : 16:9
Frame rate mode : Constant
Frame rate : 23.976 fps
Color space : YUV
Chroma subsampling : 4:2:0
Bit depth : 8 bits
Scan type : Progressive
Bits/(Pixel*Frame) : 0.113
Stream size : 220 MiB (73%)
Writing library : x264 core 115 r1995 c1e60b9
Encoding settings : cabac=1 / ref=4 / deblock=1:0:0 / analyse=0x3:0x113 / me=umh / subme=7 / psy=1 / psy_rd=1.00:0.15 / mixed_ref=1 / me_range=24 / chroma_me=1 / trellis=1 / 8x8dct=1 / cqm=0 / deadzone=21,11 / fast_pskip=0 / chroma_qp_offset=-3 / threads=3 / sliced_threads=0 / nr=0 / decimate=0 / interlaced=0 / bluray_compat=0 / constrained_intra=0 / bframes=3 / b_pyramid=2 / b_adapt=1 / b_bias=0 / direct=3 / weightb=1 / open_gop=0 / weightp=2 / keyint=250 / keyint_min=23 / scenecut=40 / intra_refresh=0 / rc_lookahead=60 / rc=crf / mbtree=1 / crf=19.0 / qcomp=0.60 / qpmin=0 / qpmax=69 / qpstep=4 / ip_ratio=1.40 / aq=2:1.00
Default : No
Forced : No
Audio #1
ID : 2
Format : AC-3
Format/Info : Audio Coding 3
Mode extension : CM (complete main)
Format settings, Endianness : Big
Codec ID : A_AC3
Duration : 27mn 42s
Bit rate mode : Constant
Bit rate : 192 Kbps
Channel(s) : 2 channels
Channel positions : Front: L R
Sampling rate : 48.0 KHz
Compression mode : Lossy
Stream size : 38.1 MiB (13%)
Title : Persona99
Language : Russian
Default : Yes
Forced : No
Audio #2
ID : 3
Format : AC-3
Format/Info : Audio Coding 3
Mode extension : CM (complete main)
Format settings, Endianness : Big
Codec ID : A_AC3
Duration : 27mn 42s
Bit rate mode : Constant
Bit rate : 192 Kbps
Channel(s) : 2 channels
Channel positions : Front: L R
Sampling rate : 48.0 KHz
Compression mode : Lossy
Stream size : 38.1 MiB (13%)
Language : Japanese
Default : No
Forced : No
Text
ID : 4
Format : ASS
Codec ID : S_TEXT/ASS
Codec ID/Info : Advanced Sub Station Alpha
Compression mode : Lossless
Title : ass
Language : Russian
Default : No
Forced : No




   Похожие торренты   Торрент   Размер 
В этой теме нет новых непрочитанных сообщений. Детектив Конан OVA-3: Конан, Хейджи и исчезнувший мальчик / Detective Conan: Conan and Heiji and the Vanished Boy (2003) DVDRip-AVC | L

1 | 6

220.39 МБ

В этой теме нет новых непрочитанных сообщений. Детектив Конан OVA-4: Конан, Кид и Мать-Кристал! / Detective Conan: Conan and Kid and Crystal Mother (2004) DVDRip-AVC | L

1 | 0

311.39 МБ

В этой теме нет новых непрочитанных сообщений. Детектив Конан / Detective Conan TV [101-200] (1996) DVDRip | Persona99

5 | 1

33.67 ГБ

В этой теме нет новых непрочитанных сообщений. Детектив Конан / Detective Conan TV [001-100] (1996) DVDRip | Persona99

1 | 28

32.43 ГБ

В этой теме нет новых непрочитанных сообщений. Детектив Конан OVA-2: 16 подозреваемых / Detective Conan: 16 Suspects [OVA-2] (2002) DVDRip AVC | Persona99

11 | 1

339.37 МБ

В этой теме нет новых непрочитанных сообщений. Детектив Конан OVA-10: Кид на острове ловушек! / Detective Conan: Kid in Trap Island (2010) DVDRip-AVC | L1

1 | 0

321.95 МБ

В этой теме нет новых непрочитанных сообщений. Детектив Конан OVA-7: Вызов от Агасы! / Detective Conan: A Challenge from Agasa (2007) DVDRip-AVC | L

2 | 0

178.49 МБ




Вы не можете начинать темы
Вы не можете отвечать на сообщения
Вы не можете редактировать свои сообщения
Вы не можете удалять свои сообщения
Вы не можете добавлять вложения

Перейти:  
Для Мосгорсуда, Роскомнадзора и рекламодателей: mosgorsud-torrent[собачка]yandex.ru
 Вход
ppkBB3cker v.2 © 2008-2014 @ PPK
[ Time : 0.042s | 17 Queries | GZIP : Off ]

cron