img image001 image001 image001 image001 image001 image001 image001 image001 image001 image001 image001 image001 image001 image001 image001

Planets Sun Sun Sun
Статистика раздачи
Автор: Nickolas3434 | Размер: 19.09 ГБ | Добавлен: 27 дек 2017
Раздают: 11    Качают: 2
Скачать торрент
Скачать торрент
Описание торрента

СообщениеДобавлено: 27 дек 2017 


Информация о фильме
Название : Заклинательница зверей Эрин
Оригинальное название : Kemono no Souja Erin / The Beast Player Erin / 獣の奏者 エリン
Год выхода : 2009
Жанр : Фэнтези, повседневность, драма
Режиссер : Хамана Такаюки
| MyAnimeList
Описание : Среди вечных битв и людского хаоса поднялась великая, хранимая богами империя Рёдза. Никто не может посягнуть на ее пределы, да и внутри страны власть уже немолодой императрицы крепка и незыблема. Правда, кроме помощи богов у могущества империи есть еще одна простая причина - только в Рёдза умеют использовать для битвы драконоподобных ящеров Тода, небольшой отряд которых может разогнать любую армию. Выращивать и тренировать 10-метровых зверей – сложное и ответственное ремесло, поэтому молодая мастерица Сойон, хоть и происходит из гонимого Племени Тумана, все же пользуется в деревне Аке определенным авторитетом. Аке – особая деревня, все жители которой, так или иначе, заняты работой с Тода, причем результаты курируются «с самого верха». Любая ошибка может дорого обойтись, поэтому Сойон и пыталась отговорить дочь, 8-летнюю Эрин, от выбора семейной профессии.
Увы, судьба зеленоглазой Эрин, обладательницы невероятного таланта, была уже решена. Жизнь и борьба этой девочки среди войн и интриг, горечи предательства и обретения любви будет отражена в эпическом полотне по мотивам новой серии романов автора «Хранителя священного духа».
© Hollow, World Art
Страна : Япония
Производство : Production I.G / Transarts
Продолжительность : 50 эпизодов по ~24 минуты
Перевод: Любительский (одноголосый, закадровый), Любительский (двухголосый, закадровый)
Русские субтитры:
Переводчик: Kogarasi (08, 13-17, 25-47 эп.) & Exmel (01-07, 09-12 эп.) & DJATOM (18 эп.) & drauglin (48-50 эп.)
Редактор: Kogarasi (01-07, 09-12 эп.) & zlobny_sow (01-17 эп.) & Exmel (08 эп.) & Bel-chan (18> эп.)
Озвучка: [SHIZA Project]
- одноголосая (муж.): Azazel (01-14 эп.) - Semple
- двухголосая (муж./жен.): Azazel & Venera (15-50 эп.) - Semple
Работа со звуком: BalFor, RedZef, NIKITOS, Onkel
Тайминг: Azazel, Onkel, Black-eyed, Aristocrat, suime_naola
Озвучка: [RG Genshiken]
- одноголосая (жен.): Kedra (01-15 эп.) - Semple
Работа со звуком, тайминг: Бродяга
Автор рипа и релиза : Kirion
Файл
Формат видео: mp4
Качество : BDRip ([Kirion] Kemono no Souja Erin (BD 720p x264 AAC MP4) [reseed])
Видео: AVC, 1280x720 (16:9), 1634 kbps, 23.976 fps, 8bit
Аудио : Японский, AAC, 192 Кбит/с, 48.0 kHz, 2 ch (в составе контейнера)
Аудио : Русский, AAC, 192 Кбит/с, 48.0 kHz, 2 ch (внешним файлам) [SHIZA Project]
Аудио : Русский, AC3, 192 Кбит/с, 48.0 kHz, 2 ch (внешним файлам) [RG Genshiken]
Субтитры (ASS): Русские (внешними файлами)
Субтитры (ASS): Английские (внешними файлами) - Перевод: Coalgirls
01. Зеленоглазая Эрин / Green-eyed Erin
02. Целитель Соён / Soyon the Healer
03. Боевой зверь / The Fighting Beast
04. Тайна Тумана / Secrets of the Mist
05. Эрин и воры яиц / Erin and the Egg Thief
06. Нежность Соён / Soyon's Warmth
07. Свист матери / A Mother's Whistle
08. Пасечник Джон / Joun the Beekeeper
09. Эрин и мёд / Honey and Erin
10. Птица зари / Dawn Bird
11. Внутри врат / Inside the Gateway
12. Серебряное перо / Silver Feather
13. Долина королевского зверя / Valley of the Beast King
14. Люди тумана / Mist People
15. Их прошлое / Their Past
16. Сезан Ял / Ial the Sezan
17. Королева под ударом / The Targeted Queen
18. Инструктор Эсал / Instructor Esal
19. Друг Казалма / Kazalm's Friend
20. Лилан, королевский зверь / The Beast King Called Lilan
21. Исчезающий свет / Disappearing Light
22. Отзвук арфы / Echo of the Harp
23. Присяга Казалма / Kazalm's Oath
24. Песня тоски / Song of Grief
25. Их поручение / Their Errand
26. Сердце Лилан / Lilan's Heart
27. Падение в Хикару / Fallen to Hikara
28. Смерть Джона / Joun's Death
29. Клыки зверя / Beast's Tusks
30. Четвёртая зима / The Fourth Winter
31. Чистые небеса / Bright Sky
32. Серьёзный проступок / Serious Crime
33. Полёт / Flying
34. Ял и Эрин / Ial and Erin
35. Новая жизнь / New Life
36. Выпускной экзамен / Final Exam
37. Рождение / Birth
38. Истиный правитель Харумия / True Ruler Harumiya
39. Атака тод / Touda Attack
40. Страна под угрозой (Тучи сгущаются, Время смуты) / Darkening Country
41. Правда об истинном правителе / The Truth About the True Ruler
42. Слёзы Сеймии / Seimiya's Tears
43. Лекарь зверя / The Beast Doctors
44. Плод наваждения / Akun Me Chae
45. Птица в клетке / A Bird in a Cage
46. Узы, связавшие двух / The Bond Between the Two
47. Чистая ночь / Pure Night
48. Рассвет на Рёзе / Dawn at Ryoza
49. Решающая битва / Final Battle
50. Повелитель зверей / Beast Player




General
Complete name : E:/Torrent_2/Kemono no Souja Erin (2009, AVC BDRip-720p, RUS JAP+Sub [Rus Eng]) [Kirion] [Stranik 2.0]/[Kirion] Kemono no Souja Erin - 01 (BD 720p x264 AAC).mp4
Format : MPEG-4
Format profile : Base Media
Codec ID : isom
File size : 321 MiB
Duration : 24mn 31s
Overall bit rate : 1 831 Kbps
Encoded date : UTC 2016-07-30 07:12:06
Tagged date : UTC 2016-07-30 07:12:06
Writing application : XviD4PSP 6.0 / 54.29.105
Comment : Thanks - [Moozzi2]
Video #1
ID : 1
Format : AVC
Format/Info : Advanced Video Codec
Format profile : [email protected]
Format settings, CABAC : Yes
Format settings, ReFrames : 7 frames
Codec ID : avc1
Codec ID/Info : Advanced Video Coding
Duration : 24mn 31s
Bit rate : 1 634 Kbps
Width : 1 280 pixels
Height : 720 pixels
Display aspect ratio : 16:9
Frame rate mode : Constant
Frame rate : 23.976 fps
Color space : YUV
Chroma subsampling : 4:2:0
Bit depth : 8 bits
Scan type : Progressive
Bits/(Pixel*Frame) : 0.074
Stream size : 287 MiB (89%)
Writing library : x264 core 128 r2216M 198a7ea
Encoding settings : cabac=1 / ref=7 / deblock=1:0:0 / analyse=0x3:0x133 / me=umh / subme=10 / psy=1 / psy_rd=0.70:0.10 / mixed_ref=0 / me_range=32 / chroma_me=1 / trellis=2 / 8x8dct=1 / cqm=0 / deadzone=21,11 / fast_pskip=0 / chroma_qp_offset=-3 / threads=11 / lookahead_threads=1 / sliced_threads=0 / nr=0 / decimate=1 / interlaced=0 / bluray_compat=0 / constrained_intra=0 / bframes=7 / b_pyramid=2 / b_adapt=2 / b_bias=0 / direct=1 / weightb=1 / open_gop=0 / weightp=2 / keyint=240 / keyint_min=24 / scenecut=40 / intra_refresh=0 / rc_lookahead=60 / rc=crf / mbtree=1 / crf=18.5 / qcomp=0.70 / qpmin=10 / qpmax=69 / qpstep=4 / ip_ratio=1.40 / aq=1:1.00
Language : Japanese
Encoded date : UTC 2016-07-30 07:12:06
Tagged date : UTC 2016-07-30 07:12:06
Audio #2
ID : 2
Format : AAC
Format/Info : Advanced Audio Codec
Format profile : LC
Codec ID : 40
Duration : 24mn 31s
Bit rate mode : Constant
Bit rate : 192 Kbps
Channel(s) : 2 channels
Channel positions : Front: L R
Sampling rate : 48.0 KHz
Compression mode : Lossy
Stream size : 33.6 MiB (10%)
Language : Japanese
Encoded date : UTC 2016-07-30 07:12:06
Tagged date : UTC 2016-07-30 07:12:06

Моя максимальная скорость отдачи 100КБ/c
Раздаю с 7:00 до 1:00 по Москве





   Похожие торренты   Торрент   Размер 
В этой теме нет новых непрочитанных сообщений. Заклинательница зверей Эрин / Kemono no Souja Erin / The Beast Player Erin [01-50 з 50] (2009) HDTVRip 720p | L2

12 | 5

17.25 ГБ

В этой теме нет новых непрочитанных сообщений. Эрин Брокович / Erin Brockovich (2000) BDRip 720p

45 | 7

6.85 ГБ

В этой теме нет новых непрочитанных сообщений. Эрин Хантер - Коты-воители / Erin Hunter - Warriors [18 шт] (2003-2009) RTF

801 | 169

59.36 МБ

В этой теме нет новых непрочитанных сообщений. Эрин Брокович / Erin Brockovich (2000) BDRip от ExKinoRay

100 | 6

2.19 ГБ

В этой теме нет новых непрочитанных сообщений. Эрин Брокович / Erin Brockovich (2000) BDRip от HQCLUB

54 | 66

2.59 ГБ

В этой теме нет новых непрочитанных сообщений. Эрин Брокович / Erin Brockovich (2000) BDRip-AVC | iPad | D

29 | 8

3.63 ГБ

В этой теме нет новых непрочитанных сообщений. Эрин Брокович / Erin Brockovich (2000) BDRip-AVC от MediaClub | D, P, A

47 | 7

4.76 ГБ




Вы не можете начинать темы
Вы не можете отвечать на сообщения
Вы не можете редактировать свои сообщения
Вы не можете удалять свои сообщения
Вы не можете добавлять вложения

Перейти:  
Для Мосгорсуда, Роскомнадзора и рекламодателей: mosgorsud-torrent[собачка]yandex.ru
 Вход
ppkBB3cker v.2 © 2008-2014 @ PPK
[ Time : 0.063s | 18 Queries | GZIP : Off ]

cron