img image001 image001 image001 image001 image001 image001 image001 image001 image001 image001 image001 image001 image001 image001 image001

Planets Sun Sun Sun
Статистика раздачи
Автор: Nickolas3434 | Размер: 5.66 ГБ | Добавлен: 27 дек 2017
Раздают: 11    Качают: 0
Скачать торрент
Скачать торрент
Описание торрента

СообщениеДобавлено: 27 дек 2017 


Информация о фильме
Название : Кобаяши и её горничная-дракон
Оригинальное название : Kobayashi-san Chi No Maid Dragon / Miss Kobayashi`s Dragon Maid / 小林さんちのメイドラゴン
Год выхода : 2017
Жанр : Комедия, повседневность
Режиссер : Такэмото Ясухиро
| MyAnimeList | Офиц. сайт
Описание : Одинокая Кобаяши любит по вечерам после тяжелой работы пропустить стаканчик пива и поговорить о милых горничных. Однажды она была настолько одинока, что завела беседу с незнакомкой (размер огромный, цвет зеленый, крылья присутствуют). Слово за слово, выяснилось, что незнакомка тоже одинока, и Кобаяши пригласила ее пожить у себя (естественно, в роли горничной!). Наутро действие алкоголя кончилось, а вот незнакомка осталась, и оказалось, что она не только ужасно невоспитанная горничная, но еще и... дракон!
П. С. И друзья у нее - драконы!
© Tiss (World-Art)
Страна : Япония
Производство : Kyoto Animation & Animation Do
Продолжительность : 13 эп. по ~24 мин. + 8 спешлов 1 эп. ~24 мин., 7 эп. по ~3 мин.
Перевод: Любительский (многоголосый, закадровый), субтитры (спешлы)
Перевод:
Cубтитры: YakuSub Studio
Переводчик: Yukigawa
Редактор: Aero & SeshaRim
Оформление - Helge
Озвучка: AniDub/Студийная Банда
- многоголосая закадровая: Esther & Demetra & Торгиль & BalFor & Cuba77 & Влад Дуров (эп.01-13 + Sp. 1)
По переводу: FooBoo
Тайминг и работа со звуком: NeSqUiK
Автор рипа и релиза: Страник 2.0
Файл
Формат видео : AVI
Качество : BDRip (исходник: BDRemux, спасибо antiBILLotic)
Тип релиза: Полухардсаб (Надписи)
Видео: XviD, 720x400 (16:9), 1868 Кбит/с, 23.976 fps, 8bit
Аудио 1: Русский, AC3, 192 Кбит/с, 48.0 Hz, 2 ch (в составе контейнера)
Аудио 2: Японский, AC3, 192 Кбит/с, 48.0 Hz, 2 ch (в составе контейнера)
Субтитры (srt): Русские (внешним файлом)

01. Сильнейшая горничная в истории, Тору! (Ну, она же дракон)
02. Второй дракон, Канна! (Да, мы всё проспойлерили)
03. Начало новой жизни! (Конечно же, ничего не ждём)
04. Канна идёт в школу! (Не то чтобы ей это нужно было, но...)
05. Тору познаёт реальный мир! (Она думает, что уже его понимает)
06. Визит домой! (Но дом не посетят)
07. Лето в разгаре! (Эпизод фансервиса, честно говоря)
08. Новый дракон, Элма! (Наконец-то дождались, да?)
09. Спортивный фестиваль! (Рояль в кустах не спрятали)
10. На сцене, театральная группа драконов! (А, так это их название)
11. Старый и Новый год! (Обойдёмся без Комикета в этот раз)
12. Очень важная встреча Тору и Кобаяши! (Мы поднимаем собственный уровень)
13. Владыка Смерти Прибывает! (Мы и не заметили, как настал последний эпизод)
S1 (эп. 14) Валентинов день, а затем горячие источники! (Только не ждите чего-то особенного)
S2. Драконочто-то-там Кобаяши!
S3. Драконоживотные Кобаяши!
S4. Драконуниформа Кобаяши!
S5. Боевой дракон Кобаяши!
S6. Драконоспорт Кобаяши!
S7. Дракономистерия Кобаяши!
S8. Драконосвадьба Кобаяши!




General
Complete name : E:/Torrent_2/Kobayashi-san Chi No Maid Dragon (2017, XviD BDRip, RUS JAP+SUB) [Stranik 2.0]/01. The Strongest Maid in History, Tohru! (Well, She Is a Dragon).avi
Format : AVI
Format/Info : Audio Video Interleave
File size : 408 MiB
Duration : 25mn 11s
Overall bit rate : 2 267 Kbps
Writing application : VirtualDubMod 1.5.10.3 (build 2550/release)
Writing library : VirtualDubMod build 2550/release
Video #0
ID : 0
Format : MPEG-4 Visual
Format profile : Advanced [email protected]
Format settings, BVOP : 2
Format settings, QPel : No
Format settings, GMC : No warppoints
Format settings, Matrix : Custom
Codec ID : XVID
Codec ID/Hint : XviD
Duration : 25mn 11s
Bit rate : 1 868 Kbps
Width : 720 pixels
Height : 400 pixels
Display aspect ratio : 16:9
Frame rate : 23.976 fps
Color space : YUV
Chroma subsampling : 4:2:0
Bit depth : 8 bits
Scan type : Progressive
Compression mode : Lossy
Bits/(Pixel*Frame) : 0.271
Stream size : 337 MiB (82%)
Writing library : XviD 67
Audio #1
ID : 1
Format : AC-3
Format/Info : Audio Coding 3
Mode extension : CM (complete main)
Format settings, Endianness : Big
Codec ID : 2000
Duration : 25mn 11s
Bit rate mode : Constant
Bit rate : 192 Kbps
Channel(s) : 2 channels
Channel positions : Front: L R
Sampling rate : 48.0 KHz
Bit depth : 16 bits
Compression mode : Lossy
Stream size : 34.6 MiB (8%)
Alignment : Split accross interleaves
Interleave, duration : 42 ms (1.00 video frame)
Interleave, preload duration : 500 ms
Audio #2
ID : 2
Format : AC-3
Format/Info : Audio Coding 3
Mode extension : CM (complete main)
Format settings, Endianness : Big
Codec ID : 2000
Duration : 25mn 11s
Bit rate mode : Constant
Bit rate : 192 Kbps
Channel(s) : 2 channels
Channel positions : Front: L R
Sampling rate : 48.0 KHz
Bit depth : 16 bits
Compression mode : Lossy
Stream size : 34.6 MiB (8%)
Alignment : Split accross interleaves
Interleave, duration : 42 ms (1.00 video frame)
Interleave, preload duration : 500 ms

Моя максимальная скорость отдачи 100КБ/c
Раздаю с 7:00 до 00:00 по Москве





   Похожие торренты   Торрент   Размер 
В этой теме нет новых непрочитанных сообщений. Дракон-горничная Кобаяши-сан / Kobayashi-san Chi no Maid Dragon [01-04 из 12] (2017) HDTVRip 720p | SEKAI PROJECT

0 | 0

1.3 ГБ

В этой теме нет новых непрочитанных сообщений. Дракон-горничная Кобаяши-сан / Kobayashi-san Chi no Maid Dragon [01-05 из 12] (2017) HDTVRip 720p | SEKAI PROJECT

3 | 0

1.63 ГБ

В этой теме нет новых непрочитанных сообщений. Дракон-горничная Кобаяши-сан / Kobayashi-san Chi no Maid Dragon [01-02 из 12] (2017) HDTVRip 720p | SEKAI PROJECT

0 | 0

817.05 МБ

В этой теме нет новых непрочитанных сообщений. Дракон-горничная Кобаяши-сан / Kobayashi-san Chi no Maid Dragon [01-02 из 12] (2017) HDTVRip 720p | SEKAI PROJECT

0 | 0

665.41 МБ

В этой теме нет новых непрочитанных сообщений. Дракон-горничная Кобаяши-сан / Kobayashi-san Chi no Maid Dragon [01 из 12] (2017) HDTVRip 720p | SEKAI PROJECT

0 | 0

332.67 МБ

В этой теме нет новых непрочитанных сообщений. Дракон-горничная Кобаяши-сан / Kobayashi-san Chi no Maid Dragon [01-03 из 12] (2017) HDTVRip 720p | SEKAI PROJECT

0 | 0

998.81 МБ

В этой теме нет новых непрочитанных сообщений. Кобаяши и Дракон-горничная / Kobayashi-san Chi no Maid Dragon (Такэмото Ясухиро) [JWA Project MVO] [TV] [13 из 13] [RAW] [RUS] [2017, повседневность, сэйнэн, седзё-ай, фэнтези, комедия, HDTVRip] [720p]

13 | 0

8.75 ГБ




Вы не можете начинать темы
Вы не можете отвечать на сообщения
Вы не можете редактировать свои сообщения
Вы не можете удалять свои сообщения
Вы не можете добавлять вложения

Перейти:  
Для Мосгорсуда, Роскомнадзора и рекламодателей: mosgorsud-torrent[собачка]yandex.ru
 Вход
ppkBB3cker v.2 © 2008-2014 @ PPK
[ Time : 0.058s | 18 Queries | GZIP : Off ]

cron