img image001 image001 image001 image001 image001 image001 image001 image001 image001 image001 image001 image001 image001 image001 image001

Planets Sun Sun Sun
Статистика раздачи
Автор: Nickolas3434 | Размер: 14.55 ГБ | Добавлен: 27 дек 2017
Раздают: 0    Качают: 1
Скачать торрент
Скачать торрент
Описание торрента

СообщениеДобавлено: 27 дек 2017 

Jigoku Sensei Nube
Страна: Япония
Год выпуска: 1996-97 г.
Жанр: комедия, ужасы, мистика, школа
Тип: TV
Продолжительность: ~00:25:00 серия
Режиссер: Кайдзава Юкио
Студия: TOEI ANIMATION
Описание:
1. Напомнило сразу Онизуку. Ждете, что будет нормальная школа с ненормальным учителем? Или наоборот? Так вот, тут школа обычная - пятиклашки как пятиклашки. Сенсеи почти нормальные. Один Нубэ со своей адской рукой немного отклонился от нормы. А вот сам мир далек от обычного: существуют здесь не только люди. Тут и йокаи, и каппы, и призраки, и демоны - призрачный мир наложен на людской, врата адские постоянно открываются в обе стороны, проклятия сыпятся со всех сторон и вообще неясно, как при таком хаосе большинство людей спокойно живет-поживает.
Вернемся к пятиклашкам. Перевели к ним нового учителя - Нубэ. И у школы появился личный онмедзи. Нубэ учит детишек математике, безуспешно ухлестывает за учительницей соседних классов и попутно изгоняет духов своей демонской рукой, которую он отхрячил от какого-то сильного демона. Или демона загнал к себе в руку и отрастил таким макаром эту лапу. Или еще что, неважно. Главное, что во всем этом хаосе появился хоть один тип, который одной левой может набить морды призракам и изгнать их обратно в мир иной. Где-то так.
Рисовка из еще Ранмавского периода, ностальжи прет из всех дыр. Приставания Нубэ за рамки не заходят, училку он даже пожамкать не пытался, только намеки и моментальные затрещины за намеки. Юмор без штампов кажись, и ненавязчивый. Приключений в каждой серии навалом. Определенного ужаса найдено тоже не было, это далеко не Higurashi Naku Koro ni, хотя бошки тут тоже отрезают. В общем, легкий школьный авантюрчик, не шедевр, но девятку заслуживает.
© Taora
2. Как оказалось, вполне себе хороший сборник ужастиков в стиле "100 историй о призраках". Недостаток только один: Нубе. Ловелас и кретин, хотя и неплохой оммёдзи.
© ALRaven
Доп. информация:
Релиз GSGroup

Эта серия состоит из:
#1 Адский учитель Нубэ [ТВ] - ТВ (49 эп.), адаптация манги, 1996
#2 Адский учитель Нубэ (фильм первый) - к/ф, адаптация манги, 1996
#3 Адский учитель Нубэ (фильм второй) - к/ф, продолжение, 1997
#4 Адский учитель Нубэ (фильм третий) - к/ф, продолжение, 1997
#5 Адский учитель Нубэ OVA - OAV (3 эп.), spinoff (ответвление сюжета) ТВ-сериала, 1998

Качество: DVDRip
Формат видео: MKV
Видео: x264, 716x476, (анаморф @636x476), (4/3), ~1848 Kbps, 23.976fps, 8 bit
Аудио 1: AC3, 2 ch, 192кбит/с, 48000Hz Язык Русский (в составе контейнера) ; Озвучка: Любительская одноголосая: Persona99
Аудио 2: AC3, 2 ch, 384кбит/с, 48000Hz Язык Японский ; Озвучка 2: оригинал
Субтитры: встроенные srt Язык субтитров русский ; Перевод: shintou, tadeus, Arzitron, Bosatsu team
General
Unique ID : 200956287972235674048451961834519750097 (0x972EC5F3D5888855921B7261C59565D1)
Complete name : Hell Teacher Nube TVJigoku Sensei Nube TV - 02 [Persona99](R2DVD 716x476 x264 AC3).rus.jpn.mkv
Format : Matroska
Format version : Version 2
File size : 406 MiB
Duration : 22mn 55s
Overall bit rate : 2 474 Kbps
Encoded date : UTC 2017-10-01 06:55:07
Writing application : mkvmerge v4.0.0 ('The Stars were mine') built on Jun 6 2010 16:18:42
Writing library : libebml v1.0.0 + libmatroska v1.0.0
Video
ID : 1
Format : AVC
Format/Info : Advanced Video Codec
Format profile : [email protected]
Format settings, CABAC : Yes
Format settings, ReFrames : 5 frames
Codec ID : V_MPEG4/ISO/AVC
Duration : 22mn 55s
Bit rate : 1 848 Kbps
Width : 716 pixels
Height : 476 pixels
Display aspect ratio : 4:3
Original display aspect ratio : 4:3
Frame rate mode : Constant
Frame rate : 23.976 fps
Color space : YUV
Chroma subsampling : 4:2:0
Bit depth : 8 bits
Scan type : Progressive
Bits/(Pixel*Frame) : 0.226
Stream size : 303 MiB (75%)
Writing library : x264 core 133 r2334 a3ac64b
Encoding settings : cabac=1 / ref=5 / deblock=1:-1:-1 / analyse=0x3:0x113 / me=umh / subme=11 / psy=1 / psy_rd=0.90:0.00 / mixed_ref=1 / me_range=32 / chroma_me=1 / trellis=2 / 8x8dct=1 / cqm=0 / deadzone=21,11 / fast_pskip=0 / chroma_qp_offset=-2 / threads=12 / lookahead_threads=1 / sliced_threads=0 / nr=0 / decimate=1 / interlaced=0 / bluray_compat=0 / constrained_intra=0 / bframes=3 / b_pyramid=0 / b_adapt=2 / b_bias=0 / direct=3 / weightb=1 / open_gop=0 / weightp=2 / keyint=240 / keyint_min=23 / scenecut=40 / intra_refresh=0 / rc_lookahead=50 / rc=crf / mbtree=1 / crf=16.5 / qcomp=0.70 / qpmin=10 / qpmax=51 / qpstep=4 / vbv_maxrate=62500 / vbv_bufsize=78125 / crf_max=0.0 / nal_hrd=none / ip_ratio=1.40 / aq=1:1.10
Language : Japanese
Default : No
Forced : No
Color range : Limited
Color primaries : BT.601 PAL
Transfer characteristics : BT.470 System B, BT.470 System G
Matrix coefficients : BT.601
Audio #1
ID : 2
Format : AC-3
Format/Info : Audio Coding 3
Mode extension : CM (complete main)
Format settings, Endianness : Big
Codec ID : A_AC3
Duration : 22mn 55s
Bit rate mode : Constant
Bit rate : 192 Kbps
Channel(s) : 2 channels
Channel positions : Front: L R
Sampling rate : 48.0 KHz
Compression mode : Lossy
Stream size : 31.5 MiB (8%)
Title : Persona99
Language : Russian
Default : Yes
Forced : No
Audio #2
ID : 3
Format : AC-3
Format/Info : Audio Coding 3
Mode extension : CM (complete main)
Format settings, Endianness : Big
Codec ID : A_AC3
Duration : 22mn 55s
Bit rate mode : Constant
Bit rate : 384 Kbps
Channel(s) : 2 channels
Channel positions : Front: L R
Sampling rate : 48.0 KHz
Compression mode : Lossy
Stream size : 63.0 MiB (16%)
Language : Japanese
Default : No
Forced : No
Text
ID : 4
Format : UTF-8
Codec ID : S_TEXT/UTF8
Codec ID/Info : UTF-8 Plain Text
Title : srt
Language : Russian
Default : No
Forced : No
01. The Terrifying New School Term! The Mysterious Demon Claw
02. Hanako-san of the toilet has appeared~!
03. Cannot shut out the rumors! The talkative ghost, the terrifying five-tongues!
04. Prohibited?! Kappa the Water Demon Came out Under the Tetsubou
05. The seven mysteries in school, the magical 13 stairs
06. Nube Dead?! Strongest Rival, Youko Tamamo
07. Demon Hand VS Fire Circle Tail Technique
08. UFO Attacks! Aliens approach on Domori City
09. Class 5-3 Big Panic! Big Breast 6-feet Neck Woman
10. Outbreak of devils! Studious children be careful
11. Scoop! Nube is married to Yukime!?
12. Terrifying outing! Mystery of Hell Gate Ridge
13. The classroom transforms into a lethal weapon!? Curse of the Demon Blade
14. Two Kyoukos!? Doppelganger terror
15. Snow dance! Freezing mission in summer
16. The demon claw cannot be used!! Freak in the old school hostel
17. Poolside romance... Spirit at the 4th course
18. Fox demon, Tamazou, resurrects! The mammoth demon fish which resides in the school yard!!
19. Continuous tearing up! Pursuit of strongest love pair
20. Time sleep into the past! I'd seen it, Nube's secret!!
21. Clash with the gods! I should receive punishment!!
22. Someone is behind you! The frightening spiritual photographs!!
23. Mystery of 00:00:00!? Parallel mirrors of the seven mysteries
24. The devilish D-cup!! The legend of the crow's love
25. The Panic of Happiness! The Zashiki Warashi Who Disappeared Between Tears
26. The birth of a terrifying 2nd generation!! Mama's a demon, Papa's a teacher!
27. The dangerous part-time job of spiritualism, Izuna, the girl who is able to control spirited animals
28. Extremely strange X mass...the kesarampasaran of happiness
29. The all-star demons appearance! The cursed school festival
30. The terror after class! The running Ninomiya Kinjirou statue!!
31. The terror of the eye-ball demon which cannot be told to anyone!! The crime of the violinist prodigy
32. And then everyone starts to disappear! The mysterious red-clothed girl in the library!!
33. Appears Shoukera on the Window! Ritsuko-sensei`s Maximum Crisis
34. The past of the interdiction which is now revealed! The secret of the birth of the demon's claw!!
35. Daidarabochi is My Cautive! Miki-chan`s Dream Town!!



Семпл:http://yadi.sk/i/b6aUzDZ33NMurf



   Похожие торренты   Торрент   Размер 
В этой теме нет новых непрочитанных сообщений. Адский учитель Нубэ / Hell Teacher Nube TV [01-10 из 49] (1996) DVDRip AVC | Persona99

3 | 1

6.06 ГБ

В этой теме нет новых непрочитанных сообщений. Адский учитель Нубэ / Hell Teacher Nube TV [01-10 из 49] (1996) DVDRip AVC | Persona99

6 | 2

4.08 ГБ

В этой теме нет новых непрочитанных сообщений. Адский учитель Нубэ / Hell Teacher Nube TV [01-45 из 49] (1996) DVDRip-AVC | Persona99

0 | 0

18.81 ГБ

В этой теме нет новых непрочитанных сообщений. Адский учитель Нубэ / Hell Teacher Nube TV [01-10 из 49] (1996) DVDRip AVC | Persona99

0 | 0

8.07 ГБ

В этой теме нет новых непрочитанных сообщений. Адский учитель Нубэ / Hell Teacher Nube TV [01-30 из 49] (1996) DVDRip-AVC | Persona99

0 | 0

12.39 ГБ

В этой теме нет новых непрочитанных сообщений. Адский учитель Нубэ / Hell Teacher Nube TV [01-40 из 49] (1996) DVDRip-AVC | Persona99

0 | 0

16.66 ГБ

В этой теме нет новых непрочитанных сообщений. Адский учитель Нубэ / Hell Teacher Nube TV [01-25 из 49] (1996) DVDRip-AVC | Persona99

0 | 0

10.12 ГБ




Вы не можете начинать темы
Вы не можете отвечать на сообщения
Вы не можете редактировать свои сообщения
Вы не можете удалять свои сообщения
Вы не можете добавлять вложения

Перейти:  
Для Мосгорсуда, Роскомнадзора и рекламодателей: mosgorsud-torrent[собачка]yandex.ru
 Вход
ppkBB3cker v.2 © 2008-2014 @ PPK
[ Time : 0.569s | 17 Queries | GZIP : Off ]

cron