img image001 image001 image001 image001 image001 image001 image001 image001 image001 image001 image001 image001 image001 image001 image001

Planets Sun Sun Sun
Статистика раздачи
Автор: Nickolas3434 | Размер: 1.11 ГБ | Добавлен: 04 янв 2018
Раздают: 19    Качают: 2
Скачать торрент
Скачать торрент
Описание торрента

СообщениеДобавлено: 04 янв 2018 

Информация о фильме
Название: Сказка о Хвосте феи: Плач дракона
Оригинальное название: Fairy Tail Movie 2: Dragon Cry
Год выхода: 2017
Жанр: приключения, комедия, фэнтези
Режиссер: Тацума Миникава
Продолжительность: 1ч. 25мин.
О фильме:
«Плач дракона» — волшебный артефакт, созданный яростью и отчаянием драконов — был украден гнусным предателем Зашем Кейном, который сбежал с ним в маленькую островную страну. Испуганный король Фиора спешно отправляет «Хвост феи» вернуть могущественный артефакт. Во время этой крайне важной миссии «Хвосту» предстоит не только узнать тайну, которая лежит в сердце королевства Стелла, но и предотвратить мировую катастрофу.
Доп. информация:

Релиз GSGroup
Перевод: Любительский одноголосый (Persona99)
Субтитры: русские (внешние) Aniplay
Качество: BDRip
Формат видео: AVI
Видео: XviD, 720x400, 23.976 fps, 1470 Kbps, 8 bits
Аудио 1: AC3 , 192 kb/s, 48.0 KHz, 2 ch - любительский одноголосый
Аудио 2: AC3, 192 Kbps, 48.0 KHz, 2 ch -оригинал (Японский)
Семпл
General
Complete name : Fairy Tail Movie 02 (2017)Fairy Tail Movie 2 [Persona99] (BD720x400 XviD AC3).rus.jpn.avi
Format : AVI
Format/Info : Audio Video Interleave
File size : 1.11 GiB
Duration : 1h 25mn
Overall bit rate : 1 868 Kbps
Writing application : VirtualDubMod 1.5.10.2 (build 2540/release)
Writing library : VirtualDubMod build 2540/release
Video
ID : 0
Format : MPEG-4 Visual
Format profile : Advanced [email protected]
Format settings, BVOP : 2
Format settings, QPel : No
Format settings, GMC : No warppoints
Format settings, Matrix : Default (H.263)
Codec ID : XVID
Codec ID/Hint : XviD
Duration : 1h 25mn
Bit rate : 1 470 Kbps
Width : 720 pixels
Height : 400 pixels
Display aspect ratio : 16:9
Frame rate : 23.976 fps
Color space : YUV
Chroma subsampling : 4:2:0
Bit depth : 8 bits
Scan type : Progressive
Compression mode : Lossy
Bits/(Pixel*Frame) : 0.213
Stream size : 894 MiB (79%)
Writing library : XviD 67
Audio #1
ID : 1
Format : AC-3
Format/Info : Audio Coding 3
Mode extension : CM (complete main)
Format settings, Endianness : Big
Codec ID : 2000
Duration : 1h 25mn
Bit rate mode : Constant
Bit rate : 192 Kbps
Channel(s) : 2 channels
Channel positions : Front: L R
Sampling rate : 48.0 KHz
Compression mode : Lossy
Stream size : 117 MiB (10%)
Alignment : Split accross interleaves
Interleave, duration : 42 ms (1.00 video frame)
Interleave, preload duratio : 500 ms
Audio #2
ID : 2
Format : AC-3
Format/Info : Audio Coding 3
Mode extension : CM (complete main)
Format settings, Endianness : Big
Codec ID : 2000
Duration : 1h 25mn
Bit rate mode : Constant
Bit rate : 192 Kbps
Channel(s) : 2 channels
Channel positions : Front: L R
Sampling rate : 48.0 KHz
Compression mode : Lossy
Stream size : 117 MiB (10%)
Alignment : Split accross interleaves
Interleave, duration : 42 ms (1.00 video frame)
Interleave, preload duratio : 500 ms




   Похожие торренты   Торрент   Размер 
В этой теме нет новых непрочитанных сообщений. Сказка о Хвосте феи: Плач дракона / Fairy Tail Movie 2: Dragon Cry (2017) BDRip 1080 Hi10P | Persona99

13 | 7

7.47 ГБ

В этой теме нет новых непрочитанных сообщений. Сказка о Хвосте феи: Плач дракона / Fairy Tail Movie 2: Dragon Cry (2017) BDRip КПК | SEKAI PROJECT

12 | 3

968.07 МБ

В этой теме нет новых непрочитанных сообщений. Сказка о Хвосте феи: Плач дракона / Fairy Tail Movie 2: Dragon Cry (2017) BDRip 1080p | SEKAI PROJECT

20 | 4

7.57 ГБ

В этой теме нет новых непрочитанных сообщений. Сказка о Хвосте феи: Плач дракона / Fairy Tail Movie 2: Dragon Cry (2017) BDRip 720p | SEKAI PROJECT

80 | 9

2.19 ГБ

В этой теме нет новых непрочитанных сообщений. Сказка о хвосте феи / Fairy Tail [OVA] [01-09] (2011-2016) DVDRip AVC | Persona99

15 | 5

3.88 ГБ

В этой теме нет новых непрочитанных сообщений. Сказка о Хвосте Феи Начало / Fairy Tail Zero [01-02 из 12] (2016) HDTVRip 720p | Persona99

22 | 8

730.17 МБ

В этой теме нет новых непрочитанных сообщений. Сказка о Хвосте Феи Начало / Fairy Tail Zero [01-06] (2016) HDTVRip 720p | Persona99

48 | 14

2.27 ГБ




Вы не можете начинать темы
Вы не можете отвечать на сообщения
Вы не можете редактировать свои сообщения
Вы не можете удалять свои сообщения
Вы не можете добавлять вложения

Перейти:  
Для Мосгорсуда, Роскомнадзора и рекламодателей: mosgorsud-torrent[собачка]yandex.ru
 Вход
ppkBB3cker v.2 © 2008-2014 @ PPK
[ Time : 0.037s | 17 Queries | GZIP : Off ]

cron