img image001 image001 image001 image001 image001 image001 image001 image001 image001 image001 image001 image001 image001 image001 image001
Planets Sun Sun Sun
Статистика раздачи
Автор: PriZraK | Размер: 1.3 ГБ | Добавлен: 12 фев 2018
Раздают: 0    Качают: 3
Скачать торрент
Скачать торрент
Описание торрента

СообщениеДобавлено: 12 фев 2018 

Красавица-воин Сейлор Мун Эр (спэшл) / Sailor Moon R: Make Up! Sailor Senshi!

Make-Up! Sailor Soldier / メイクアップ! セーラー戦士


Перевод: Профессиональный (двухголосый) | LE-Production |
Субтитры: нет
Хардсаб: отсутствует

Формат: BDRip, MKV, X265, DTS
Страна: Япония
Режиссер: Косака Харумэ / Kosaka Harume / 小坂春女
Жанр: комедия, махо-сёдзё, сёдзё
Продолжительность: короткометражный фильм, 17 мин.
Год выпуска: 1993
Озвучка: Тимиркан Сиюхов & Маргарита Щелкунова

Студия:

Описание: Короткометражный фильм, дополнение к фильму Sailor Moon R The Movie - Promise of the Rose [1993]
Этот короткий эпизод изначально предшествовал полнометражке Sailor Moon R при показе в кинотеатрах.
Усаги и Чибиуса сидели в кафе, когда случайно услышали, что сидящие за соседним столиком девушки обсуждают Сейлор Воительниц. Эта дискуссия выглядит как обзор серий первого сезона и раскрытие характеров главных персонажей.


Рейтинг World-Art: 7.3 из 10
Рейтинг AniDB: 5.42 из 10

Видео: 1 920 x 1080 (16:9), 23.976 fps, x265, 10 bit, 9 982 kbps
Аудио#1: Rus: 48 kHz, DTS, 1 ch, 640 kbps | LE-Production |
Аудио#2: Jap: 48 kHz, DTS, 2 ch, 640 kbps | Оригинал |

Format : Matroska
Format version : Version 4 / Version 2
File size : 1.30 GiB
Duration : 16mn 33s
Overall bit rate : 11.3 Mbps
Encoded date : UTC 2017-11-07 19:58:17
Writing application : mkvmerge v9.1.0 ('Little Earthquakes') 64bit
Writing library : libebml v1.3.3 + libmatroska v1.4.4

Video
ID : 1
Format : HEVC
Format/Info : High Efficiency Video Coding
Format profile : Main [email protected]@Main
Codec ID : V_MPEGH/ISO/HEVC
Duration : 16mn 32s
Bit rate : 9 982 Kbps
Width : 1 920 pixels
Height : 1 080 pixels
Display aspect ratio : 16:9
Frame rate mode : Constant
Frame rate : 23.976 (24000/1001) fps
Color space : YUV
Chroma subsampling : 4:2:0
Bit depth : 10 bits
Bits/(Pixel*Frame) : 0.201
Stream size : 1.15 GiB (89%)
Writing library : x265 2.5+31-df2de6ea407d:[Windows][GCC 7.1.0][64 bit] 10bit
Encoding settings : cpuid=1056767 / frame-threads=9 / numa-pools=8 / wpp / no-pmode / no-pme / no-psnr / no-ssim / log-level=3 / input-csp=1 / input-res=1920x1080 / interlace=0 / total-frames=0 / level-idc=0 / high-tier=1 / uhd-bd=0 / ref=2 / no-allow-non-conformance / no-repeat-headers / annexb / no-aud / no-hrd / info / hash=0 / no-temporal-layers / open-gop / min-keyint=23 / keyint=230 / bframes=4 / b-adapt=0 / b-pyramid / bframe-bias=0 / rc-lookahead=15 / lookahead-slices=6 / scenecut=40 / no-intra-refresh / ctu=64 / min-cu-size=8 / no-rect / no-amp / max-tu-size=32 / tu-inter-depth=1 / tu-intra-depth=1 / limit-tu=0 / rdoq-level=0 / dynamic-rd=0.00 / no-ssim-rd / signhide / no-tskip / nr-intra=0 / nr-inter=0 / no-constrained-intra / strong-intra-smoothing / max-merge=2 / limit-refs=3 / no-limit-modes / me=1 / subme=1 / merange=57 / temporal-mvp / weightp / no-weightb / no-analyze-src-pics / deblock=-3:-3 / sao / no-sao-non-deblock / rd=3 / no-early-skip / rskip / no-fast-intra / no-tskip-fast / no-cu-lossless / no-b-intra / no-splitrd-skip / rdpenalty=0 / psy-rd=2.00 / psy-rdoq=0.00 / no-rd-refine / analysis-reuse-mode=0 / no-lossless / cbqpoffs=0 / crqpoffs=0 / rc=abr / bitrate=10000 / qcomp=0.60 / qpstep=4 / stats-write=0 / stats-read=0 / ipratio=1.40 / pbratio=1.30 / aq-mode=1 / aq-strength=1.00 / cutree / zone-count=0 / no-strict-cbr / qg-size=32 / no-rc-grain / qpmax=69 / qpmin=0 / no-const-vbv / sar=1 / overscan=0 / videoformat=5 / range=0 / colorprim=1 / transfer=1 / colormatrix=1 / chromaloc=0 / display-window=0 / max-cll=0,0 / min-luma=0 / max-luma=1023 / log2-max-poc-lsb=8 / vui-timing-info / vui-hrd-info / slices=1 / opt-qp-pps / opt-ref-list-length-pps / no-multi-pass-opt-rps / scenecut-bias=0.05 / no-opt-cu-delta-qp / no-aq-motion / no-hdr / no-hdr-opt / no-dhdr10-opt / analysis-reuse-level=5 / scale-factor=0 / refine-intra=0 / refine-inter=0 / refine-mv=0 / no-limit-sao / ctu-info=0
Language : Russian
Default : Yes
Forced : No
Color range : Limited
Color primaries : BT.709
Transfer characteristics : BT.709
Matrix coefficients : BT.709

Audio #1
ID : 2
Format : DTS
Format/Info : Digital Theater Systems
Mode : 16
Format settings, Endianness : Big
Codec ID : A_DTS
Duration : 16mn 33s
Bit rate mode : Constant
Bit rate : 642 Kbps
Channel(s) : 1 channel
Channel positions : Front: C
Sampling rate : 48.0 KHz
Frame rate : 93.750 fps (512 spf)
Bit depth : 16 bits
Compression mode : Lossy
Stream size : 76.0 MiB (6%)
Title : loster01, Emeri
Language : Russian
Default : Yes
Forced : No

Audio #2
ID : 3
Format : DTS
Format/Info : Digital Theater Systems
Mode : 16
Format settings, Endianness : Big
Codec ID : A_DTS
Duration : 16mn 33s
Bit rate mode : Constant
Bit rate : 642 Kbps
Channel(s) : 2 channels
Channel positions : Front: L R
Sampling rate : 48.0 KHz
Frame rate : 93.750 fps (512 spf)
Bit depth : 16 bits
Compression mode : Lossy
Stream size : 76.0 MiB (6%)
Language : Japanese
Default : No
Forced : No






   Похожие торренты   Торрент   Размер 
В этой теме нет новых непрочитанных сообщений. Красавица-воин Сейлор Мун Эр — Фильм/ Sailor Moon R Movie: Promise of the Rose (Икухара Кунихико) [Movie] [1 из 1] [RAW] [RUS(int)+JAP] [1993, приключения, романтика, махо-сёдзё, сёдзё , BDRip] [1080p] / Сейлор Мун

0 | 3

4.77 ГБ

В этой теме нет новых непрочитанных сообщений. Красавица-воин Сейлор Мун: Кристалл / Bishoujo Senshi Sailor Moon Crystal Season III [ONA] [1-2 из 13] (2016) WEBRip 720p | LE-Production

2 | 4

812.17 МБ

В этой теме нет новых непрочитанных сообщений. Красавица-воин Сейлор Мун: Кристалл / Bishoujo Senshi Sailor Moon Crystal Season III [ONA] [01 из 13] (2016) WEBRip 720p | LE-Production

3 | 1

386.56 МБ

В этой теме нет новых непрочитанных сообщений. Красавица-воин Сейлор Мун: Кристалл / Bishoujo Senshi Sailor Moon Crystal Season III[ONA][S03] (2016) WEBRip 720p | LE-Production

58 | 20

4.6 ГБ

В этой теме нет новых непрочитанных сообщений. Красавица-воин Сейлор Мун: Кристалл / Bishoujo Senshi Sailor Moon Crystal Season III [ONA] [03х01-04 из 13] (2016) WEBRip 720p | LE-Productio

1 | 1

1.47 ГБ

В этой теме нет новых непрочитанных сообщений. Красавица-воин Сейлор Мун: Кристалл / Bishoujo Senshi Sailor Moon Crystal Season III [ONA] [03х01-06 из 13] (2016) WEBRip 720p | LE-Production

7 | 3

2.17 ГБ

В этой теме нет новых непрочитанных сообщений. Красавица-воин Сейлор Мун: Кристалл / Bishoujo Senshi Sailor Moon Crystal Season III [ONA] [03х01-05 из 13] (2016) WEBRip 720p | LE-Producti

19 | 8

1.81 ГБ




Вы не можете начинать темы
Вы не можете отвечать на сообщения
Вы не можете редактировать свои сообщения
Вы не можете удалять свои сообщения
Вы не можете добавлять вложения

Перейти:  
Для Мосгорсуда, Роскомнадзора и рекламодателей: mosgorsud-torrent[собачка]yandex.ru
 Вход
ppkBB3cker v.2 © 2008-2014 @ PPK
[ Time : 0.045s | 18 Queries | GZIP : Off ]

cron