img image001 image001 image001 image001 image001 image001 image001 image001 image001 image001 image001 image001 image001 image001 image001
Planets Sun Sun Sun
Статистика раздачи
Автор: PriZraK | Размер: 1.47 ГБ | Добавлен: 12 фев 2018
Раздают: 7    Качают: 0
Скачать торрент
Скачать торрент
Описание торрента

СообщениеДобавлено: 12 фев 2018 

Свет морского ангела (1-12 серии из 12) / Clione no Akari

Перевод: Любительский (двухголосый), cубтитры: отсутствуют
Озвучка: AniDUB
Хардсаб: отсутствует
Формат: HDTVRip, MKV, H.264, AAC
Страна: Япония, Kyotoma
Режиссер: Исикава Наоя
Жанр: Драма, повседневность, мультсериал
Продолжительность: 12 х ~ 00:09:00
Год выпуска: 2017

Описание: История рассказывает о больной и постоянно подвергающейся унижениям сироте Минори. Одним дождливым днём она не появляется в школе, потому что её поместили в больницу в другом городе. Проходит два месяца, и двое школьных друзей Минори - Такаси и Кёко - получают по электронной почте письмо без указания отправителя. В письме содержится лишь информация о летнем фестивале, который проходит в соседнем городе...



Видео: 1280x720р (16:9), 23,976fps, AVC (x264) , ~ kbps avg
Аудио: 48.0 kHz, AAC, (Front: L R), 2 ch ~ 192 Kbps avg


General
Complete name : E:DOWNLOADS[AniDub]_Clione_no_Akari_[720p]_[Oni_Berial][AniDub]_Clione_no_Akari_[01]_[720p_x264_Aac]_[Oni_Berial].mp4
Format : MPEG-4
Format profile : Base Media
Codec ID : isom
File size : 128 MiB
Duration : 8mn 59s
Overall bit rate mode : Variable
Overall bit rate : 1 996 Kbps
Encoded date : UTC 2017-08-03 20:40:36
Tagged date : UTC 2017-08-03 20:40:36
Writing application : Yamb 2.1.0.0 [http://yamb.unite-video.com]

Video
ID : 2
Format : AVC
Format/Info : Advanced Video Codec
Format profile :
Format settings, CABAC : Yes
Format settings, ReFrames : 3 frames
Codec ID : avc1
Codec ID/Info : Advanced Video Coding
Duration : 8mn 59s
Bit rate : 1 801 Kbps
Maximum bit rate : 9 790 Kbps
Width : 1 280 pixels
Height : 720 pixels
Display aspect ratio : 16:9
Frame rate mode : Constant
Frame rate : 23.976 fps
Standard : NTSC
Color space : YUV
Chroma subsampling : 4:2:0
Bit depth : 8 bits
Scan type : Progressive
Bits/(Pixel*Frame) : 0.081
Stream size : 116 MiB (90%)
Language : English
Encoded date : UTC 2017-08-04 20:28:30
Tagged date : UTC 2017-08-03 20:40:39
Color primaries : BT.709
Transfer characteristics : BT.709
Matrix coefficients : BT.709
Color range : Limited

Audio
ID : 1
Format : AAC
Format/Info : Advanced Audio Codec
Format profile : LC
Codec ID : 40
Duration : 8mn 59s
Bit rate mode : Variable
Bit rate : 192 Kbps
Maximum bit rate : 196 Kbps
Channel(s) : 2 channels
Channel positions : Front: L R
Sampling rate : 48.0 KHz
Compression mode : Lossy
Stream size : 12.4 MiB (10%)
Language : English
Encoded date : UTC 2017-08-03 20:40:36
Tagged date : UTC 2017-08-03 20:40:39










   Похожие торренты   Торрент   Размер 
В этой теме нет новых непрочитанных сообщений. Полдарк, 3 сезон 1-9 серии из 10 / Poldark [IdeaFilm] (Эдвард Базалгетт, Уильям МакГрегор) [2017, драма, мелодрама, HDTVRip 720p, Р]

6 | 6

16.06 ГБ

В этой теме нет новых непрочитанных сообщений. Полдарк (3 сезон: 1-3 серии из 10) / Poldark [IdeaFilm] (Эдвард Базалгетт, Уильям МакГрегор) [2017, драма, мелодрама, HDTVRip 720p, Р]

49 | 28

5.31 ГБ

В этой теме нет новых непрочитанных сообщений. Полдарк, 3 сезон 1-5 серии из 10 / Poldark [IdeaFilm] (Эдвард Базалгетт, Уильям МакГрегор) [2017, драма, мелодрама, HDTVRip 720p, Р]

0 | 2

8.87 ГБ

В этой теме нет новых непрочитанных сообщений. Полдарк, 3 сезон 1-7 серии из 10 / Poldark [IdeaFilm] (Эдвард Базалгетт, Уильям МакГрегор) [2017, драма, мелодрама, HDTVRip 720p, Р]

8 | 4

12.46 ГБ

В этой теме нет новых непрочитанных сообщений. Полдарк, 3 сезон 1-8 серии из 10 / Poldark [IdeaFilm] (Эдвард Базалгетт, Уильям МакГрегор) [2017, драма, мелодрама, HDTVRip 720p, Р]

4 | 10

14.26 ГБ

В этой теме нет новых непрочитанных сообщений. Улицa (1-77 серии) (Жанна Кадникова, Николай Бурлак, Михаил Соловьёв (II)) [2017, драма, комедия, мелодрама, триллер, HDTVRip 720p]

8 | 42

44.69 ГБ

В этой теме нет новых непрочитанных сообщений. Улицa (1-73 серии) (Жанна Кадникова, Николай Бурлак, Михаил Соловьёв (II)) [2017, драма, комедия, мелодрама, триллер, HDTVRip 720p]

4 | 29

42.42 ГБ




Вы не можете начинать темы
Вы не можете отвечать на сообщения
Вы не можете редактировать свои сообщения
Вы не можете удалять свои сообщения
Вы не можете добавлять вложения

Перейти:  
Для Мосгорсуда, Роскомнадзора и рекламодателей: mosgorsud-torrent[собачка]yandex.ru
 Вход
ppkBB3cker v.2 © 2008-2014 @ PPK
[ Time : 0.039s | 18 Queries | GZIP : Off ]

cron