img image001 image001 image001 image001 image001 image001 image001 image001 image001 image001 image001 image001 image001 image001 image001
Planets Sun Sun Sun
Статистика раздачи
Автор: PriZraK | Размер: 423.24 МБ | Добавлен: 12 фев 2018
Раздают: 3    Качают: 0
Скачать торрент
Скачать торрент
Описание торрента

СообщениеДобавлено: 12 фев 2018 

Жаркая ночка с монахом / Порочная ночь с монахом была... / Souryo to Majiwaru Shikiyoku no Yoru ni... / 僧侶と交わる色欲の夜に...


Перевод: Любительский (двухголосый) - AniDUB
Субтитры: отсутствуют
Хардсаб: отсутствует

Формат: HDTVRip, MP4, H.264, AAC
Страна: Япония
Режиссер: Араки Хидэки / Araki Hideki / 荒木英樹
Автор оригинала: Маоми Леон / 真臣レオン
Жанр: романтика, эротика
Продолжительность: ТВ (12 эп.), 5 мин.
Год выпуска: 2017
Перевод на русский: Саюри
Тайминг и работа со звуком: NeSqUiK

Озвучка: Esther & Cuba77

Студия:

Описание: Куджо унаследовал храм своих родителей и стал монахом. Однако, на встрече одноклассников он встречает девушку, которая влюблена в него со школьных времен. Что будет дальше??



Видео: 1280 x 720 (16:9) at 23.976 fps, AVC (x264), , 1257 Kbps avg, 0.057 bit/pixel, 8 bit
Аудио: 48.0 kHz, AAC, 2 ch, 132.3 kbps avg

Общее
Полное имя : [AniDub]_Souryo_to_Majiwaru_Shikiyoku_no_Yoru_ni..._[720p] / [AniDub]_Souryo_to_Majiwaru_Shikiyoku_no_Yoru_ni..._[01]_[720p].mp4
Формат : MPEG-4
Профиль формата : Base Media
Идентификатор кодека : isom
Размер файла : 34,9 Мбайт
Продолжительность : 3 м. 30 с.
Общий поток : 1386 Кбит/сек
Дата кодирования : UTC 2017-04-03 06:42:21
Дата пометки : UTC 2017-04-03 06:42:21
Программа кодирования : Yamb 2.1.0.0 [http://yamb.unite-video.com]

Видео
Идентификатор : 1
Формат : AVC
Формат/Информация : Advanced Video Codec
Профиль формата :
Параметр CABAC формата : Да
Параметр ReFrames формата : 4 кадры
Идентификатор кодека : avc1
Идентификатор кодека/Информация : Advanced Video Coding
Продолжительность : 3 м. 29 с.
Вид битрейта : Переменный
Битрейт : 1257 Кбит/сек
Максимальный битрейт : 5849 Кбит/сек
Ширина : 1280 пикс.
Высота : 720 пикс.
Соотношение сторон : 16:9
Режим частоты кадров : Постоянный
Частота кадров : 23,976 кадр/сек
Цветовое пространство : YUV
Подвыборка цветности : 4:2:0
Битовая глубина : 8 бит
Тип развёртки : Прогрессивная
Бит/(Пиксели*Кадры) : 0.057
Размер потока : 31,5 Мбайт (90%)
Заголовок : 264
Библиотека кодирования : x264 core 129 r2245+729M 1a52e03
Настройки программы : cabac=1 / ref=4 / deblock=1:1:-1 / analyse=0x3:0x113 / me=umh / subme=9 / psy=1 / fade_compensate=0.00 / psy_rd=1.00:0.00 / mixed_ref=1 / me_range=24 / chroma_me=1 / trellis=2 / 8x8dct=1 / cqm=0 / deadzone=21,11 / fast_pskip=1 / chroma_qp_offset=-2 / threads=8 / lookahead_threads=1 / sliced_threads=0 / nr=0 / decimate=1 / interlaced=0 / bluray_compat=0 / constrained_intra=0 / fgo=0 / bframes=9 / b_pyramid=2 / b_adapt=2 / b_bias=0 / direct=1 / weightb=1 / open_gop=0 / weightp=2 / keyint=240 / keyint_min=24 / scenecut=40 / intra_refresh=0 / rc=crf / mbtree=0 / crf=18.5 / qcomp=0.72 / qpmin=0 / qpmax=69 / qpstep=4 / ip_ratio=1.40 / pb_ratio=1.30 / aq=1:0.85
Дата кодирования : UTC 2017-04-03 03:00:56
Дата пометки : UTC 2017-04-03 06:42:21
Основные цвета : BT.709-5, BT.1361, IEC 61966-2-4, SMPTE RP177
Характеристики трансфера : BT.709-5, BT.1361
Коэффициенты матрицы : BT.709-5, BT.1361, IEC 61966-2-4 709, SMPTE RP177

Аудио
Идентификатор : 2
Формат : AAC
Формат/Информация : Advanced Audio Codec
Профиль формата : LC
Идентификатор кодека : 40
Продолжительность : 3 м. 30 с.
Вид битрейта : Переменный
Битрейт : 132,3 Кбит/сек
Максимальный битрейт : 143 Кбит/сек
Канал(ы) : 2 канала(ов)
Расположение каналов : Front: L R
Частота : 48,0 КГц
Метод сжатия : С потерями
Размер потока : 3,29 Мбайт (9%)
Дата кодирования : UTC 2017-04-03 06:42:21
Дата пометки : UTC 2017-04-03 06:42:21














   Похожие торренты   Торрент   Размер 
В этой теме нет новых непрочитанных сообщений. Жаркая ночка с монахом / Порочная ночь с монахом была... / Souryo to Majiwaru Shikiyoku no Yoru ni... (Араки Хидэки) [TV] [01-06 из 12] [RAW] [RUS(int)] [2017, романтика, эротика, HDTVRip] [720p]

2 | 0

218.18 МБ

В этой теме нет новых непрочитанных сообщений. Жаркая ночка с монахом / Souryo to Majiwaru Shikiyoku no Yoru ni [TV] [01-04 из 12] (2017) HDTVRip 720p | DeadLine Studio

0 | 0

163.97 МБ

В этой теме нет новых непрочитанных сообщений. Жаркая ночка с монахом / Souryo to Majiwaru Shikiyoku no Yoru ni [TV] [01 из 12] (2017) HDTVRip 720p | DeadLine Studio

3 | 0

41.12 МБ

В этой теме нет новых непрочитанных сообщений. Порочная ночь со священником / Souryo to Majiwaru Shikiyoku no Yoru ni [01 из 12] (2017) HDTVRip 720p | AniFilm

2 | 4

41.19 МБ

В этой теме нет новых непрочитанных сообщений. Порочная ночь со священником / Souryo to Majiwaru Shikiyoku no Yoru ni [01 из 12] (2017) HDTVRip 720p | AniFilm

11 | 5

80.14 МБ

В этой теме нет новых непрочитанных сообщений. Порочная ночь со священником / Souryo to Majiwaru Shikiyoku no Yoru ni [01 из 12] (2017) HDTVRip 720p | AniFilm

13 | 0

119.88 МБ

В этой теме нет новых непрочитанных сообщений. Порочная ночь со священником / Souryo to Majiwaru Shikiyoku no Yoru ni [01-04 из 12] (2017) HDTVRip 720p | AniFilm

3 | 0

266.81 МБ




Вы не можете начинать темы
Вы не можете отвечать на сообщения
Вы не можете редактировать свои сообщения
Вы не можете удалять свои сообщения
Вы не можете добавлять вложения

Перейти:  
Для Мосгорсуда, Роскомнадзора и рекламодателей: mosgorsud-torrent[собачка]yandex.ru
 Вход
ppkBB3cker v.2 © 2008-2014 @ PPK
[ Time : 0.823s | 18 Queries | GZIP : Off ]

cron