img image001 image001 image001 image001 image001 image001 image001 image001 image001 image001 image001 image001 image001 image001 image001
Planets Sun Sun Sun
Статистика раздачи
Автор: PriZraK | Размер: 1.37 ГБ | Добавлен: 12 фев 2018
Раздают: 3    Качают: 2
Скачать торрент
Скачать торрент
Описание торрента

СообщениеДобавлено: 12 фев 2018 

Герои не ссут! / Heroes don't Bi-Bi

Перевод: Любительский (двухголосый)
Субтитры: Китайские (вшитые)
Хардсаб: Китайский
Формат: WEBRip, MP4, H.264, AAC
Страна: Китай
Жанр: аниме, комедия, приключения, пародия, фэнтези
Продолжительность: ТВ (13 эп.), 10 мин.
Год выпуска: 2016
Озвучка: Demetra, Cuba77

Описание: В бою неравном, на поле брани, повергли обманом великого героя - Капитана Рубэна Уильяма Магелана, известного как Уилл Тёрнер Колумб Воробей Каталина Де Ла Вон Джеки Чан Хэ!!! И были разбросаны осколки его души по белу свету! И был нарушен привычный порядок в мире! Но пришел тот, чье имя звучит грозно, а намерения его чисты! Тот, кого называют мастером душ, способным вернуть к жизни Капитана Рубэна Уильяма Магелана, известного как Уилл Тёрнер Колумб Воробей Каталина Де Ла Вон Джеки Чан Хэ!! Ну пока, каждый раз, когда герой говорит фразу "Святые папаши!", душа капитана приходит на помощь мастеру душ лишь на время. В поисках осколков души капитана, к герою присоединяется аппетитная красотка с жуть каким зверским аппетитом Сяо Бинг-Бинг...

Видео: 1280x720р (16:9), 30.000fps, AVC (x264) , ~ 1397 kbps avg, 0.051 bit/pixel
Аудио: 48.0 kHz, AAC, (Front: L R), 2 ch ~ 192 Kbps avg

General
Complete name : D:\[AniDub]_Heroes_Dont_Bi_Bi\[AniDub]_Heroes_Dont_Bi_Bi_[01]_[720p].mp4
Format : MPEG-4
Format profile : Base Media
Codec ID : isom
File size : 138 MiB
Duration : 12mn 8s
Overall bit rate mode : Variable
Overall bit rate : 1 593 Kbps
Encoded date : UTC 2016-09-19 23:26:20
Tagged date : UTC 2016-09-19 23:26:20

Video
ID : 1
Format : AVC
Format/Info : Advanced Video Codec
Format profile :
Format settings, CABAC : Yes
Format settings, ReFrames : 3 frames
Codec ID : avc1
Codec ID/Info : Advanced Video Coding
Duration : 12mn 8s
Bit rate : 1 397 Kbps
Maximum bit rate : 5 033 Kbps
Width : 1 280 pixels
Height : 720 pixels
Display aspect ratio : 16:9
Frame rate mode : Constant
Frame rate : 30.000 fps
Color space : YUV
Chroma subsampling : 4:2:0
Bit depth : 8 bits
Scan type : Progressive
Bits/(Pixel*Frame) : 0.051
Stream size : 121 MiB (88%)
Title : ISO Media file produced by Google Inc.
Encoded date : UTC 2016-08-13 08:00:39
Tagged date : UTC 2016-09-19 23:26:23

Audio
ID : 2
Format : AAC
Format/Info : Advanced Audio Codec
Format profile : LC
Codec ID : 40
Duration : 12mn 8s
Source duration : 12mn 8s
Bit rate mode : Variable
Bit rate : 192 Kbps
Maximum bit rate : 201 Kbps
Channel(s) : 2 channels
Channel positions : Front: L R
Sampling rate : 48.0 KHz
Compression mode : Lossy
Stream size : 16.6 MiB (12%)
Source stream size : 16.6 MiB (12%)
Language : English
Encoded date : UTC 2016-09-09 17:42:27
Tagged date : UTC 2016-09-19 23:26:23











   Похожие торренты   Торрент   Размер 
В этой теме нет новых непрочитанных сообщений. Герои не ссут! / Heroes don't Bi-Bi [S01] (2015) WEBRip 720p | AniDub

4 | 0

1.37 ГБ

В этой теме нет новых непрочитанных сообщений. Ван Пис / One Piece / Одним Куском (Уда Коносукэ) [TV] [630 - 816 из 850+] [RAW] [RUS] [2014-2017, приключения, комедия, фэнтези, WEBRip] [720p] / Ван-Пис

0 | 2

42.37 ГБ

В этой теме нет новых непрочитанных сообщений. Ван Пис / One Piece (Уда Коносукэ) [TV] [490-726 из xxx] [RAW] [RUS+JAP] [2012-2016, приключения, комедия, фэнтези, сёнэн, HDTVRip] [720p] / Ван-Пис

0 | 75

93.44 ГБ

В этой теме нет новых непрочитанных сообщений. Кобаяши и её горничная-дракон / Kobayashi-san Chi no Maid Dragon (Такэмото Ясухиро) [TV] [1-13 из 13] [RAW] [RUS] [2017, аниме, мультфильм, комедия, фэнтези, HDRip] [720p]

0 | 0

1.83 ГБ

В этой теме нет новых непрочитанных сообщений. Дораэмон: Останься со мной / Stand by Me Doraemon (Тони Оливер, Руиши Яаги, Такаси Ямадзаки) [2014, аниме, приключения, комедия, мультфильм , WEBRip] DVO

34 | 3

1.45 ГБ

В этой теме нет новых непрочитанных сообщений. Семейка Крудс. Начало, 1 сезон 1 серия / Dawn of the Croods (Дэн Милано) [2015, комедия, приключения, фэнтези, семейный, WEBRip] MVO

45 | 9

300.01 МБ

В этой теме нет новых непрочитанных сообщений. Герои: Возрождение, 1 сезон 0-13 серии из 13 / Heroes Reborn [Baibako] (Лариса Кондрацки, Аллан Аркуш, Грег Биман) [2015, фантастика, фэнтези, WEB-DL 720p, P]

2 | 10

19.8 ГБ




Вы не можете начинать темы
Вы не можете отвечать на сообщения
Вы не можете редактировать свои сообщения
Вы не можете удалять свои сообщения
Вы не можете добавлять вложения

Перейти:  
Для Мосгорсуда, Роскомнадзора и рекламодателей: mosgorsud-torrent[собачка]yandex.ru
 Вход
ppkBB3cker v.2 © 2008-2014 @ PPK
[ Time : 0.037s | 18 Queries | GZIP : Off ]

cron