img image001 image001 image001 image001 image001 image001 image001 image001 image001 image001 image001 image001 image001 image001 image001
Planets Sun Sun Sun
Статистика раздачи
Автор: PriZraK | Размер: 1.07 ГБ | Добавлен: 12 фев 2018
Раздают: 3    Качают: 0
Скачать торрент
Скачать торрент
Описание торрента

СообщениеДобавлено: 12 фев 2018 

Карикатурные Упыри Сенгоку / Sengoku Choujuu Giga / 戦国鳥獣戯画

Перевод: Любительский (одноголосый)
Субтитры: отсутствуют
Формат: HDTVRip, MP4, H.264, AAC
Страна: Япония
Режиссер: Сумида Такаси
Жанр: приключения, комедия
Продолжительность: ТВ (26 эп.), 3 мин.
Год выпуска: 2016
Озвучка: 9й Неизвестный

Студия:

Описание: Японский сатирический мультипликационный взгляд на собственную историю, культуру, национальные традиции, и собственно сам жанр аниме. Вы думаете, взгляд европейца на Японию замшелый и стереотипный? Вот, пожалуйста, так смотрят на себя сами японцы. Штампы и стандартные "специальные способности" героев не удивят никого, кто хоть раз играл в компьютерные игры, смотрел раньше японские мультфильмы, или интересовался их обычаями. Зато у многих фанатов могут вызвать добрую улыбку, и попытки вспомнить, где же они уже такое встречали.



Видео: 1280x720р (16:9), 29.970fps, AVC (x264) , ~ 1776 kbps avg, 0.064 bit/pixel
Аудио: 48.0 kHz, AAC, (Front: L R), 2 ch ~ 256 Kbps avg

General
Complete name : E:\DOWNLOADS\[AniDub]_Sengoku_Choujuu_Giga_[720p]_[9th_Unknown]\[AniDub]_Sengoku_Choujuu_Giga_[01]_[720p_x264_Aac]_[9th_Unknown].mp4
Format : MPEG-4
Format profile : Base Media
Codec ID : isom
File size : 42.7 MiB
Duration : 3mn 0s
Overall bit rate mode : Variable
Overall bit rate : 1 988 Kbps
Encoded date : UTC 2016-10-09 16:47:34
Tagged date : UTC 2016-10-09 16:47:34

Video
ID : 1
Format : AVC
Format/Info : Advanced Video Codec
Format profile :
Format settings, CABAC : Yes
Format settings, ReFrames : 6 frames
Codec ID : avc1
Codec ID/Info : Advanced Video Coding
Duration : 3mn 0s
Bit rate : 1 776 Kbps
Maximum bit rate : 6 035 Kbps
Width : 1 280 pixels
Height : 720 pixels
Display aspect ratio : 16:9
Frame rate mode : Constant
Frame rate : 29.970 fps
Color space : YUV
Chroma subsampling : 4:2:0
Bit depth : 8 bits
Scan type : Progressive
Bits/(Pixel*Frame) : 0.064
Stream size : 37.1 MiB (87%)
Writing library : x264 core 120 r2120 0c7dab9
Encoding settings : cabac=1 / ref=6 / deblock=1:1:1 / analyse=0x3:0x113 / me=umh / subme=8 / psy=1 / psy_rd=0.40:0.00 / mixed_ref=1 / me_range=16 / chroma_me=1 / trellis=1 / 8x8dct=1 / cqm=0 / deadzone=21,11 / fast_pskip=1 / chroma_qp_offset=-2 / threads=4 / sliced_threads=0 / nr=0 / decimate=1 / interlaced=0 / bluray_compat=0 / constrained_intra=0 / bframes=3 / b_pyramid=2 / b_adapt=2 / b_bias=0 / direct=3 / weightb=1 / open_gop=0 / weightp=2 / keyint=250 / keyint_min=25 / scenecut=40 / intra_refresh=0 / rc_lookahead=50 / rc=2pass / mbtree=1 / bitrate=1776 / ratetol=1.0 / qcomp=0.60 / qpmin=0 / qpmax=69 / qpstep=4 / cplxblur=20.0 / qblur=0.5 / vbv_maxrate=3552 / vbv_bufsize=8880 / nal_hrd=none / ip_ratio=1.40 / aq=1:0.60
Encoded date : UTC 2016-10-09 16:47:34
Tagged date : UTC 2016-10-09 16:47:45

Audio
ID : 2
Format : AAC
Format/Info : Advanced Audio Codec
Format profile : LC
Codec ID : 40
Duration : 3mn 0s
Bit rate mode : Variable
Bit rate : 256 Kbps
Maximum bit rate : 274 Kbps
Channel(s) : 2 channels
Channel positions : Front: L R
Sampling rate : 48.0 KHz
Compression mode : Lossy
Stream size : 5.49 MiB (13%)
Encoded date : UTC 2016-10-09 16:47:19
Tagged date : UTC 2016-10-09 16:47:45












   Похожие торренты   Торрент   Размер 
В этой теме нет новых непрочитанных сообщений. Пердящий Горо / Onara Gorou (Танигути Такаси) [TV] [13 из 13] [RAW] [RUS] [2016, комедия, HDTVRip] [720p]

4 | 2

684.08 МБ

В этой теме нет новых непрочитанных сообщений. Тяжелый Объект / Heavy Object (Ватанабэ Такаси) [TV-1] [1-14 из 24] [Ancord & Jade & Fuurou & Nika Lenina] [RAW] [RUS] [2015-2016 г., приключения, HDTVRip] [720p]

1 | 3

6.41 ГБ

В этой теме нет новых непрочитанных сообщений. Дораэмон: Останься со мной / Stand by Me Doraemon (Тони Оливер, Руиши Яаги, Такаси Ямадзаки) [2014, аниме, приключения, комедия, мультфильм , WEBRip] DVO

34 | 3

1.45 ГБ

В этой теме нет новых непрочитанных сообщений. Дораэмон: Останься со мной / Stand by Me Doraemon (Тони Оливер, Такаси Ямадзаки, Руиши Яаги) [2014, аниме, приключения, комедия, мультфильм , HDRip] DVO

56 | 9

1.38 ГБ

В этой теме нет новых непрочитанных сообщений. Ария по прозвищу Алая Пуля / Hidan no Aria AA (Кавабата Такаси) [TV-2] [1-12 из 12] [AnimeVost] [RAW] [RUS] [2015 г., приключения, HDTVRip] [720p]

42 | 11

5.92 ГБ

В этой теме нет новых непрочитанных сообщений. Ван Пис / One Piece (Уда Коносукэ) [TV] [490-726 из xxx] [RAW] [RUS+JAP] [2012-2016, приключения, комедия, фэнтези, сёнэн, HDTVRip] [720p] / Ван-Пис

0 | 75

93.44 ГБ

В этой теме нет новых непрочитанных сообщений. Тяжёлый объект / Heavy Object [I.D.A] (Ватанабэ Такаси) [TV-1] [2 из 24] [RAW] [RUS] [2015, Приключения, Экшен, Меха, Фантастика, Драма, WEBRip] [720p]

6 | 4

2.18 ГБ




Вы не можете начинать темы
Вы не можете отвечать на сообщения
Вы не можете редактировать свои сообщения
Вы не можете удалять свои сообщения
Вы не можете добавлять вложения

Перейти:  
Для Мосгорсуда, Роскомнадзора и рекламодателей: mosgorsud-torrent[собачка]yandex.ru
 Вход
ppkBB3cker v.2 © 2008-2014 @ PPK
[ Time : 0.049s | 18 Queries | GZIP : Off ]

cron