img image001 image001 image001 image001 image001 image001 image001 image001 image001 image001 image001 image001 image001 image001 image001
Planets Sun Sun Sun
Статистика раздачи
Автор: PriZraK | Размер: 7.97 ГБ | Добавлен: 12 фев 2018
Раздают: 0    Качают: 3
Скачать торрент
Скачать торрент
Описание торрента

СообщениеДобавлено: 12 фев 2018 

Дело ведет юный детектив Киндайчи: Возвращение / Kindaichi Shounen no Jikenbo Returns

Перевод: Любительский (двухголосый)
Субтитры: отсутствуют
Хардсаб: отсутствует
Формат: HDTVRip, MP4, H.264, AAC
Страна: Япония
Режиссер: Икэда Ёко
Жанр: приключения, детектив
Продолжительность: ТВ (>25 эп.), 25 мин.
Год выпуска: 2015-2016
Озвучка: Oni, Lonely Dragon

Студия:

Описание: Продолжение истории про юного детектива Киндачи.



Видео: 1280x720р (16:9), 23,976fps, AVC (x264) , ~ 1 776 kbps avg, 0.080 bit/pixel
Аудио: 48.0 kHz, AAC-LC, (Front: L R) , 2 ch ~192Kbps avg

General
Complete name : E:\DOWNLOADS\[AniDub]_Kindaichi_Shounen_no_Jikenbo_Returns_TV-2_[720]_[Oni_LonelyDragon]\[AniDub]_Kindaichi_Shounen_no_Jikenbo_Returns_TV-2_[720_x264_Aac]_[Oni_LonelyDragon].mp4
Format : MPEG-4
Format profile : Base Media
Codec ID : isom
File size : 336 MiB
Duration : 23mn 50s
Overall bit rate mode : Variable
Overall bit rate : 1 970 Kbps
Encoded date : UTC 2015-10-10 18:00:55
Tagged date : UTC 2015-10-10 18:00:55

Video
ID : 1
Format : AVC
Format/Info : Advanced Video Codec
Format profile :
Format settings, CABAC : Yes
Format settings, ReFrames : 6 frames
Codec ID : avc1
Codec ID/Info : Advanced Video Coding
Duration : 23mn 50s
Bit rate : 1 776 Kbps
Maximum bit rate : 8 776 Kbps
Width : 1 280 pixels
Height : 720 pixels
Display aspect ratio : 16:9
Frame rate mode : Constant
Frame rate : 23.976 fps
Color space : YUV
Chroma subsampling : 4:2:0
Bit depth : 8 bits
Scan type : Progressive
Bits/(Pixel*Frame) : 0.080
Stream size : 302 MiB (90%)
Writing library : x264 core 120 r2120 0c7dab9
Encoding settings : cabac=1 / ref=6 / deblock=1:1:1 / analyse=0x3:0x113 / me=umh / subme=8 / psy=1 / psy_rd=0.40:0.00 / mixed_ref=1 / me_range=16 / chroma_me=1 / trellis=1 / 8x8dct=1 / cqm=0 / deadzone=21,11 / fast_pskip=1 / chroma_qp_offset=-2 / threads=4 / sliced_threads=0 / nr=0 / decimate=1 / interlaced=0 / bluray_compat=0 / constrained_intra=0 / bframes=3 / b_pyramid=2 / b_adapt=2 / b_bias=0 / direct=3 / weightb=1 / open_gop=0 / weightp=2 / keyint=250 / keyint_min=23 / scenecut=40 / intra_refresh=0 / rc_lookahead=50 / rc=2pass / mbtree=1 / bitrate=1776 / ratetol=1.0 / qcomp=0.60 / qpmin=0 / qpmax=69 / qpstep=4 / cplxblur=20.0 / qblur=0.5 / vbv_maxrate=3552 / vbv_bufsize=8880 / nal_hrd=none / ip_ratio=1.40 / aq=1:0.60
Language : English
Encoded date : UTC 2015-10-11 12:12:37
Tagged date : UTC 2015-10-10 18:01:23

Audio
ID : 2
Format : AAC
Format/Info : Advanced Audio Codec
Format profile : LC
Codec ID : 40
Duration : 23mn 50s
Bit rate mode : Variable
Bit rate : 192 Kbps
Maximum bit rate : 200 Kbps
Channel(s) : 2 channels
Channel positions : Front: L R
Sampling rate : 48.0 KHz
Compression mode : Lossy
Stream size : 32.7 MiB (10%)
Language : English
Encoded date : UTC 2015-10-10 18:01:15
Tagged date : UTC 2015-10-10 18:01:23











   Похожие торренты   Торрент   Размер 
В этой теме нет новых непрочитанных сообщений. Дело ведет юный детектив Киндаичи: Дело об убийстве в Гонконге / Kindaichi shonen no jikenbo Hong Kong Kowloon zaiho satsujin jiken (2013) HDRip от RG Orient Extreme | L2

33 | 3

1.46 ГБ

В этой теме нет новых непрочитанных сообщений. Расследование Киндаичи: Возвращение / Kindaichi Shounen no Jikenbo Returns [TV] [01 из 26] (2014) HDTVRip 720 / Persona99

4 | 4

310.64 МБ

В этой теме нет новых непрочитанных сообщений. Расследование Киндаичи: Возвращение / Kindaichi Shounen no Jikenbo Returns [TV] [01-02 из 26] (2014) HDTVRip 720 / Persona99

13 | 4

604.35 МБ

В этой теме нет новых непрочитанных сообщений. Дело ведет юный детектив Киндаичи: Дело об убийстве в Гонконге / Hong Kong Kowloon zaiho satsujin jiken (2013) HDRip от RG Orient Extreme | L2

9 | 1

747.58 МБ

В этой теме нет новых непрочитанных сообщений. Детектив-артист балета / Детектив-балерун / Keiji Ballerino (2016) HDTVRip 720p

1 | 0

2.16 ГБ

В этой теме нет новых непрочитанных сообщений. Киндайчи Коске против Акечи Когоро. Снова. SP / Kindaichi Kosuke VS Akechi Kogoro. Futatabi. SP (2014) HDTVRip | L1

12 | 7

1.38 ГБ

В этой теме нет новых непрочитанных сообщений. Детектив Конан OVA-5: Цель - Когоро!!! / Detective Conan: Hyouteki wa Kogoro!! Shounen Tanteidan Maruchichousa (2005) DVDRip AVC | L

2 | 0

264.99 МБ




Вы не можете начинать темы
Вы не можете отвечать на сообщения
Вы не можете редактировать свои сообщения
Вы не можете удалять свои сообщения
Вы не можете добавлять вложения

Перейти:  
Для Мосгорсуда, Роскомнадзора и рекламодателей: mosgorsud-torrent[собачка]yandex.ru
 Вход
ppkBB3cker v.2 © 2008-2014 @ PPK
[ Time : 0.052s | 18 Queries | GZIP : Off ]

cron