img image001 image001 image001 image001 image001 image001 image001 image001 image001 image001 image001 image001 image001 image001 image001

Planets Sun Sun Sun
Статистика раздачи
Автор: Nickolas3434 | Размер: 3.46 ГБ | Добавлен: 10 янв 2018
Раздают: 0    Качают: 0
Скачать торрент
Скачать торрент
Описание торрента

СообщениеДобавлено: 10 янв 2018 

Исполнитель/Группа: Павел Зибров
Жанр: POP
Год выпуска: 2017
Продолжительность: 02:18:56
Описание: Народный артист, звезда и лучший баритон украинской эстрады, президент "Партии почитателей женщин" Павел Зибров приглашает на юбилейный концерт "В эпицентре любви".
Народный артист Украины Павел Зибров приглашает на финальный концерт всеукраинского юбилейного тура. Новые песни и давно любимые поклонниками шлягеры, на которых выросло целое поколение. Подумать только, некоторые поклонники исполнителя под его бархатный голос засыпали в колыбели и подпевали на импровизированном концерте для родителей.
Настоящий корифей, над которым не властно время, его песни и сейчас свежи и актуальны. Знаменитый певец даже читал реп, и не хуже молодых именитых реперов. В честь Зиброва даже девушки молодой команды "Плюшевый Бруклин" наклеили себе усы.
Его голос завораживает и в лирике, и в заводных танцевальных песнях. Поздравить обаятельного усача придет целое созвездие артистов, известных далеко за пределами Украины.

Певец выпустил более двадцати альбомов, его песни уже стали классикой, и ни один праздник не обходится без его шлягеров, и в планах исполнителя покорить не только своих сверстников, но молодежную аудиторию. И учитывая огромную энергетику, трудолюбие и упорство исполнителя, он может снова собирать стадионы.
Формат: MPG
Качество: DVB
Видео кодек: MPEG-2
Аудио кодек: MP2
Видео: MPEG-2, ~3300 Kbps, [email protected] (16:9), 25fps
Аудио: MP2, 48000Hz, 2ch, 192 kbps
Zibrov_2017.mpg
Format : MPEG-PS
File size : 3.46 GiB
Duration : 2 h 18 min
Overall bit rate mode : Variable
Overall bit rate : 3 563 kb/s

Video
ID : 224 (0xE0)
Format : MPEG Video
Format version : Version 2
Format profile : [email protected]
Format settings : CustomMatrix / BVOP
Format settings, BVOP : Yes
Format settings, Matrix : Custom
Format settings, GOP : Variable
Format settings, picture structure : Frame
Duration : 2 h 18 min
Bit rate mode : Variable
Bit rate : 3 300 kb/s
Maximum bit rate : 15.0 Mb/s
Width : 720 pixels
Height : 576 pixels
Display aspect ratio : 16:9
Frame rate : 25.000 FPS
Standard : PAL
Color space : YUV
Chroma subsampling : 4:2:0
Bit depth : 8 bits
Scan type : Interlaced
Scan order : Top Field First
Compression mode : Lossy
Bits/(Pixel*Frame) : 0.318
Stream size : 3.20 GiB (93%)

Audio
ID : 192 (0xC0)
Format : MPEG Audio
Format version : Version 1
Format profile : Layer 2
Duration : 2 h 18 min
Bit rate mode : Constant
Bit rate : 192 kb/s
Channel(s) : 2 channels
Sampling rate : 48.0 kHz
Compression mode : Lossy
Stream size : 191 MiB (5%)



   Похожие торренты   Торрент   Размер 
В этой теме нет новых непрочитанных сообщений. Сергей Лазарев - В Эпицентре (2017) AAC от BestSound ExKinoRay | iTunes

9 | 0

108.96 МБ

В этой теме нет новых непрочитанных сообщений. Павел Кашин - Концерт на радио «Весна-Fm» (2014) WEBRip HEVC 720p

216 | 5

741.95 МБ

В этой теме нет новых непрочитанных сообщений. Павел Воля. Большой Stand Up / Концерт в театре эстрады (2013) WEB-DL 720p от AGR

91 | 9

1.17 ГБ

В этой теме нет новых непрочитанных сообщений. Павел Воля. Большой Stand Up / Концерт в театре эстрады (2013) WEB-DLRip

369 | 19

626.23 МБ

В этой теме нет новых непрочитанных сообщений. Эхо любви. Концерт к 85-летию Роберта Рождественского (2017) WEBRip от Files-х

6 | 1

1.25 ГБ

В этой теме нет новых непрочитанных сообщений. Эхо любви. Концерт к 85-летию Роберта Рождественского (2017) WEBRip 720p от Files-х

14 | 2

2.78 ГБ

В этой теме нет новых непрочитанных сообщений. День семьи, любви и верности. Юбилейный праздничный концерт в Муроме (2017) HDTVRip от Files-x

14 | 0

2.28 ГБ




Вы не можете начинать темы
Вы не можете отвечать на сообщения
Вы не можете редактировать свои сообщения
Вы не можете удалять свои сообщения
Вы не можете добавлять вложения

Перейти:  
Для Мосгорсуда, Роскомнадзора и рекламодателей: mosgorsud-torrent[собачка]yandex.ru
 Вход
ppkBB3cker v.2 © 2008-2014 @ PPK
[ Time : 0.039s | 18 Queries | GZIP : Off ]

cron