Man to Man
White Nights
img image001 image001 image001 image001 image001 image001 image001 image001 image001 image001 image001 image001 image001 image001 image001 image001
Planets Sun Sun Sun
Статистика раздачи
Автор: PriZraK | Размер: 6.57 ГБ | Добавлен: 12 фев 2018
Раздают: 30    Качают: 6
Скачать торрент
Скачать торрент
Описание торрента

СообщениеДобавлено: 12 фев 2018 

Петля Нестерова / КГБ против МВД (1-8 серии из [b]8)[/b]

Перевод: Не требуется, cубтитры: отсутствуют
Формат: WEB-DLRip-AVC, MKV, H.264, AC3
Страна: Россия
Режиссер: Илья Казанков
Жанр: детектив, криминал, история
Всего серий: 8
Продолжительность: 8 х ~ 00:54:00
Год выпуска: 2015

В ролях: Кирилл Запорожский, Оксана Акиньшина, Карина Разумовская, Юрий Ицков, Оксана Базилевич, Сергей Горобченко, Сергей Бурунов, Василий Бочкарёв, Евгения Дмитриева, Дмитрий Шевченко, Ирина Пегова, Светлана Чернова, Владимир Капустин, Михаил Овсянников, Владимир Лаптев, Валентин Смирнитский, Сергей Барковский, Алексей Михайлов (II), Андрей Лебедев, Сергей Холмогоров, Борис Каморзин, Сергей Беляев, Наталья Варнакова, Лариса Крупина, Елена Кудряшова, Владимир Голубев (II), Ёла Санько, Юрий Чернов, Елена Бушуева, Максим Житник, Виктор Запорожский, Сейдулла Молдаханов

Описание: В начале 1980-х годов в партийной элите СССР обострилась борьба за власть. Простые люди оказываются втянуты в беспощадный конфликт двух ведомств КГБ и МВД, за власть. Однажды вечером к участковому, старшему лейтенанту милиции Кириллу Нестерову, попадает трудный подросток с подозрительным свертком, в котором оказываются раритетные холсты русских художников. Кирилл и не догадывался, что этот эпизод станет только первой ступенькой в череде дальнейших событий, которые поставят под угрозу не только его взгляды на жизнь, но и саму жизнь!

Рейтинг и доп. информация:


Видео: 1022x576 (16:9), 25.000 fps, MPEG4 AVC (х264) , ~ 2400 kbps avg, 0.162 bit/pixel
Аудио: 48 kHz, AC3 Dolby Digital, 2/0 (L,R) ch, ~192 kbps
Общее
Уникальный идентификатор : 187341325195474833116579111921013022935 (0x8CF0A0761068D45E94114340A31CE0D7)
Полное имя : Petlja.Nesterova.2015.WEB-DLRip.(AVC).Petlya.Nesterova.(E04).2015.x264.WEB-DLRip.(AVC).mkv
Формат : Matroska
Версия формата : Version 2
Размер файла : 900 Мбайт
Продолжительность : 48 м.
Общий поток : 2584 Кбит/сек
Название фильма : Петля Нестерова.2015.(4-я серия).Rip by: ollan
Дата кодирования : UTC 2015-12-16 07:13:54
Программа кодирования : mkvmerge v5.6.0 ('Kenya Kane') built on May 27 2012 16:44:04
Библиотека кодирования : libebml v1.2.3 + libmatroska v1.3.0

Видео
Идентификатор : 1
Формат : AVC
Формат/Информация : Advanced Video Codec
Профиль формата :
Параметр CABAC формата : Да
Параметр ReFrames формата : 10 кадров
Идентификатор кодека : V_MPEG4/ISO/AVC
Продолжительность : 48 м.
Битрейт : 2400 Кбит/сек
Ширина : 1022 пикселя
Высота : 576 пикселей
Соотношение сторон : 16:9
Режим частоты кадров : Постоянный
Частота кадров : 25,000 кадров/сек
Цветовое пространство : YUV
Субдискретизация насыщенности : 4:2:0
Битовая глубина : 8 бит
Тип развёртки : Прогрессивная
Бит/(Пиксели*Кадры) : 0.162
Размер потока : 815 Мбайт (91%)
Библиотека кодирования : x264 core 125 r2200 999b753
Настройки программы : cabac=1 / ref=10 / deblock=1:-3:-3 / analyse=0x3:0x133 / me=umh / subme=11 / psy=1 / psy_rd=1.00:0.05 / mixed_ref=1 / me_range=48 / chroma_me=1 / trellis=2 / 8x8dct=1 / cqm=0 / deadzone=21,11 / fast_pskip=0 / chroma_qp_offset=-3 / threads=12 / lookahead_threads=2 / sliced_threads=0 / nr=0 / decimate=0 / interlaced=0 / bluray_compat=0 / constrained_intra=0 / bframes=9 / b_pyramid=2 / b_adapt=2 / b_bias=0 / direct=3 / weightb=1 / open_gop=0 / weightp=2 / keyint=250 / keyint_min=25 / scenecut=40 / intra_refresh=0 / rc=2pass / mbtree=0 / bitrate=2391 / ratetol=1.0 / qcomp=0.60 / qpmin=0 / qpmax=69 / qpstep=4 / cplxblur=20.0 / qblur=0.5 / ip_ratio=1.40 / pb_ratio=1.30 / aq=1:1.00
Язык : Russian
Default : Да
Forced : Нет

Аудио
Идентификатор : 2
Формат : AC-3
Формат/Информация : Audio Coding 3
Расширение режима : CM (complete main)
Параметр Endianness формата : Big
Идентификатор кодека : A_AC3
Продолжительность : 48 м.
Вид битрейта : Постоянный
Битрейт : 192 Кбит/сек
Каналы : 2 канала
Расположение каналов : Front: L R
Частота : 48,0 КГц
Битовая глубина : 16 бит
Метод сжатия : С потерями
Размер потока : 66,9 Мбайт (7%)
Язык : Russian
Default : Да
Forced : Нет















   Похожие торренты   Торрент   Размер 
В этой теме нет новых непрочитанных сообщений. Петля Нестерова / КГБ против МВД (1-8 серии из 8) (Илья Казанков) [2015, детектив, криминал, история, WEB-DL 1080p]

46 | 4

14.26 ГБ

В этой теме нет новых непрочитанных сообщений. Новогоднее счастье (1-4 серии из 4) (Илья Казанков) [2016, мелодрама, SATRip]

773 | 63

2.74 ГБ

В этой теме нет новых непрочитанных сообщений. Петля Нестерова [01 из 08] (2015) WEB-DLRip | КПК

107 | 7

246.15 МБ

В этой теме нет новых непрочитанных сообщений. Петля Нестерова [01-08 из 08] (2015) WEB-DLRip | КПК

511 | 115

1.81 ГБ

В этой теме нет новых непрочитанных сообщений. Петля Нестерова [01-04 из 08] (2015) WEB-DLRip от ExKinoRay

6622 | 1630

5.46 ГБ

В этой теме нет новых непрочитанных сообщений. Петля Нестерова [01-08 из 08] (2015) WEB-DLRip-AVC от ExKinoRay

В этой теме нет новых непрочитанных сообщений. Петля Нестерова [01-04 из 08] (2015) WEB-DLRip от GeneralFilm

18 | 3

2.17 ГБ




Вы не можете начинать темы
Вы не можете отвечать на сообщения
Вы не можете редактировать свои сообщения
Вы не можете удалять свои сообщения
Вы не можете добавлять вложения

Перейти:  
Для Мосгорсуда, Роскомнадзора и рекламодателей: mosgorsud-torrent[собачка]yandex.ru
 Вход
ppkBB3cker v.2 © 2008-2014 @ PPK
[ Time : 0.049s | 19 Queries | GZIP : Off ]

cron