Yae no Sakura
Yamada Tarou Monogatari
img image001 image001 image001 image001 image001 image001 image001 image001 image001 image001 image001 image001 image001 image001 image001 image001
Planets Sun Sun Sun
Статистика раздачи
Автор: PriZraK | Размер: 5.89 ГБ | Добавлен: 12 фев 2018
Раздают: 46    Качают: 4
Скачать торрент
Скачать торрент
Описание торрента

СообщениеДобавлено: 12 фев 2018 

Второе восстание Спартака / Спартак (1-8 серия из 8)

Перевод: Не требуется
Субтитры: отсутствуют
Формат: WEB-DLRip-AVC, MKV, H.264, AC3
Страна: Россия
Режиссер: Василий Пичул
Жанр: драма, приключения, военный, экранизация
Всего серий: 11
Продолжительность: 1 x ~ 00:47:00
Год выпуска: 2012

В ролях: Константин Крюков, Татьяна Арнтгольц, Кирилл Плетнёв, Мария Звонарёва, Александр Лойе, Александра Урсуляк, Виктор Раков, Галина Польских, Сергей Варчук, Александр Горелов (II), Анатолий Дзиваев, Александр Семчев, Роман Радов, Нияз Гаджиев, Алексей Солончев, Денис Липатов, Дмитрий Буренков, Алексей Эйбоженко (мл.), Виталий Абдулов, Александр Орав, Антон Ескин, Александр Поляк, Денис Константинов, Андрей Межулис, Оксана Гуляева, Максим Костромыкин, Лембит Ульфсак, Максим Дромашко, Наталья Ноздрина, Владимир Качан, Николай Лещуков, Артем Гайдуков, Сергей Дорофеев, Степан Девонин, Иван Титов

Описание: По роману Александра Бушкова, Андрея Константинова и Евгения Вышенкова "Второе восстание Спартака".
Спартак Котляревский был русским летчиком, бомбившим Берлин в августе 1941-го. Но вместо Звезды Героя он получил тюремный срок. И теперь у Спартака, как у его тезки, римского гладиатора, две тысячи лет назад, остался единственный выход – восстание. Котляревский организует самый крупный бунт заключенных за всю историю советского режима. Наперекор судьбе Спартак вырывается на волю, чтобы вернуться к любимой…


Рейтинг и доп. информация:


Видео: 1024x576 (16:9), 25.000 fps, MPEG4 AVC (х264) , ~ 2000 kbps avg, 0.136 bit/pixel
Аудио: 44 kHz, AC3, 2 ch, 192 kbps avg
Общее
Уникальный идентификатор : 185893310905242214065457456777474667745 (0x8BD9BFD83E6CAC94A24A8B97659CF4E1)
Полное имя : C:\Vtoroe.vosstanie.Spartaka.2013.WEB-DLRip.(AVC).\01.Vtoroe.vosstanie.Spartaka.2013.WEB-DLRip.(AVC).mkv
Формат : Matroska
Версия формата : Version 2
Размер файла : 740 Мбайт
Продолжительность : 47 м. 9 с.
Общий поток : 2193 Кбит/сек
Дата кодирования : UTC 2016-02-20 01:51:43
Программа кодирования : mkvmerge v5.6.0 ('Kenya Kane') built on Jun 29 2012 15:01:44
Библиотека кодирования : libebml v1.2.3 + libmatroska v1.3.0

Видео
Идентификатор : 1
Формат : AVC
Формат/Информация : Advanced Video Codec
Профиль формата :
Настройки формата : CABAC / 9 Ref Frames
Параметр CABAC формата : Да
Параметр RefFrames формата : 9 кадров
Идентификатор кодека : V_MPEG4/ISO/AVC
Продолжительность : 47 м. 9 с.
Битрейт : 2000 Кбит/сек
Ширина : 1024 пикселя
Высота : 576 пикселей
Соотношение сторон : 16:9
Режим частоты кадров : Постоянный
Частота кадров : 25,000 кадров/сек
Цветовое пространство : YUV
Субдискретизация насыщенности : 4:2:0
Битовая глубина : 8 бит
Тип развёртки : Прогрессивная
Бит/(Пиксели*Кадры) : 0.136
Размер потока : 660 Мбайт (89%)
Библиотека кодирования : x264 core 125 r2200 999b753
Настройки программы : cabac=1 / ref=9 / deblock=1:-2:-1 / analyse=0x3:0x133 / me=umh / subme=9 / psy=1 / psy_rd=1.00:0.15 / mixed_ref=1 / me_range=32 / chroma_me=1 / trellis=2 / 8x8dct=1 / cqm=0 / deadzone=21,11 / fast_pskip=0 / chroma_qp_offset=-3 / threads=3 / lookahead_threads=1 / sliced_threads=0 / nr=0 / decimate=1 / interlaced=0 / bluray_compat=0 / constrained_intra=0 / bframes=9 / b_pyramid=2 / b_adapt=2 / b_bias=0 / direct=1 / weightb=1 / open_gop=0 / weightp=2 / keyint=250 / keyint_min=25 / scenecut=40 / intra_refresh=0 / rc_lookahead=50 / rc=2pass / mbtree=1 / bitrate=2000 / ratetol=1.0 / qcomp=0.60 / qpmin=0 / qpmax=69 / qpstep=4 / cplxblur=20.0 / qblur=0.5 / ip_ratio=1.40 / aq=2:1.00
Default : Да
Forced : Нет
Цветовой диапазон : Limited
Основные цвета : BT.709
Характеристики трансфера : BT.709
Коэффициенты матрицы : BT.709

Аудио
Идентификатор : 2
Формат : AC-3
Формат/Информация : Audio Coding 3
Идентификатор кодека : A_AC3
Продолжительность : 47 м. 9 с.
Вид битрейта : Постоянный
Битрейт : 192 Кбит/сек
Каналы : 2 канала
Расположение каналов : Front: L R
Частота : 44,1 КГц
Частота кадров : 28,711 кадров/сек (1536 SPF)
Битовая глубина : 16 бит
Метод сжатия : С потерями
Размер потока : 64,8 Мбайт (9%)
ServiceKind/String : Complete Main
Default : Да
Forced : Нет











   Похожие торренты   Торрент   Размер 
В этой теме нет новых непрочитанных сообщений. Второе восстание Спартака / Спартак (1-8 серия из 8) (Василий Пичул) [2013, драма, приключения, военный, экранизация, WEB-DLRip]

92 | 4

4.8 ГБ

В этой теме нет новых непрочитанных сообщений. Второе восстание Спартака [01-08 из 08] (2012) WEB-DLRip-AVC от Files-x

В этой теме нет новых непрочитанных сообщений. Второе восстание Спартака [01 из 11] (2012) HDTVRip от Files-x

49 | 4

600.33 МБ

В этой теме нет новых непрочитанных сообщений. Второе восстание Спартака [01 из 11] (2012) HDTVRip-AVC от Files-x

25 | 0

741.2 МБ

В этой теме нет новых непрочитанных сообщений. Второе восстание Спартака [01-10 из 12] (2013) SATRip-AVC

91 | 28

3.16 ГБ

В этой теме нет новых непрочитанных сообщений. Второе восстание Спартака [01-10 из 12] (2013) DVB от Files-x

77 | 49

15.37 ГБ

В этой теме нет новых непрочитанных сообщений. Второе восстание Спартака [01-10 из 12] (2013) SATRip от Files-x

857 | 234

4.67 ГБ




Вы не можете начинать темы
Вы не можете отвечать на сообщения
Вы не можете редактировать свои сообщения
Вы не можете удалять свои сообщения
Вы не можете добавлять вложения

Перейти:  
Для Мосгорсуда, Роскомнадзора и рекламодателей: mosgorsud-torrent[собачка]yandex.ru
 Вход
ppkBB3cker v.2 © 2008-2014 @ PPK
[ Time : 0.050s | 18 Queries | GZIP : Off ]

cron